<svg xmlns="http://www.w3.org/2000/svg">
<defs>
<font id="UTMSharnay" horiz-adv-x="1333" >
  <font-face 
    font-family="UTM Sharnay"
    font-weight="400"
    font-stretch="normal"
    units-per-em="2048"
    panose-1="2 4 6 3 5 5 6 2 2 4"
    ascent="1638"
    descent="-410"
    x-height="999"
    cap-height="1430"
    bbox="-75 -495 4942 2399"
    underline-thickness="109"
    underline-position="-251"
    unicode-range="U+0020-2026"
  />
<missing-glyph horiz-adv-x="5040" 
d="M3351 2045h10q37 -10 37 -52q0 -12 -32 -57h-28q0 24 28 54l2 10q-5 13 -10 15h-9q-8 0 -10 -19h-30q6 49 42 49zM2019 2016l29 -31q0 -16 -40 -30h-19l-59 12l-11 -12l-28 25q11 29 43 29h11l42 -11h2q10 0 30 18zM468 1980h142v-60h-94v-75h89v-59h-89v-129l-5 -5h-49
v323zM1155 1980h43l6 -5v-78h30v-52h-30v-188l-6 -5h-49v193h-25v52h25v78zM1621 1980h42l4 -5v-94h3q23 24 54 24h2q58 0 83 -71l2 -39v-143h-52v115q0 80 -42 80h-7q-43 0 -43 -86v-109h-51v323zM2200 1980h49l5 -5v-222q10 -51 45 -51q44 7 44 59v214l5 5h49v-216
q0 -85 -66 -112q-15 -8 -35 -8q-47 0 -82 55q-14 24 -14 57v224zM2435 1980h159v-60h-56v-268h-53v268h-55v55zM2621 1980h71q7 -4 83 -251h2l80 251h73v-328h-54v242h-2l-74 -242h-44q-4 0 -58 182l-19 60h-3v-242h-55v328zM3760 1980h52v-328h-45l-5 5v11l3 2l-3 14
q-29 -40 -78 -40q-67 0 -100 91l-5 39v3q0 94 92 125l23 3q35 0 63 -32h3v107zM2057 1928h36l4 -6v-49h-45v-221h-48v23q-23 -31 -59 -31q-89 14 -89 97v156h51v-104q0 -79 26 -86l18 -5h6q26 0 39 36l3 26v133h53v25zM3476 1928v-55h-31v-221h-47v25h-2q-15 -33 -57 -33
q-68 0 -86 78l-3 29v146h52v-120q0 -50 19 -68l21 -7h9q42 0 42 69v126h27q4 0 4 28l3 3h49zM758 1905q68 0 103 -77q9 -18 12 -54q0 -88 -90 -127l-32 -3q-63 0 -101 73q-12 22 -12 52v10q0 94 101 126h19zM1011 1905h3q74 0 83 -101v-152h-51v119q0 76 -42 76h-5
q-44 0 -44 -76v-119h-52v245h46v-21q30 29 62 29zM1466 1905h7q72 0 105 -89h-60q-16 31 -42 31h-17q-53 -14 -53 -61l-3 -15q12 -69 61 -69h9q22 0 47 27h40l2 3h3l2 -3l2 3l3 -3l2 3l2 -7q-33 -81 -110 -81q-76 0 -110 94l-4 36v3q0 85 77 120q15 8 37 8zM3141 1905h2

<glyph glyph-name=".notdef" horiz-adv-x="5040" 
d="M3351 2045h10q37 -10 37 -52q0 -12 -32 -57h-28q0 24 28 54l2 10q-5 13 -10 15h-9q-8 0 -10 -19h-30q6 49 42 49zM2019 2016l29 -31q0 -16 -40 -30h-19l-59 12l-11 -12l-28 25q11 29 43 29h11l42 -11h2q10 0 30 18zM468 1980h142v-60h-94v-75h89v-59h-89v-129l-5 -5h-49
v323zM1155 1980h43l6 -5v-78h30v-52h-30v-188l-6 -5h-49v193h-25v52h25v78zM1621 1980h42l4 -5v-94h3q23 24 54 24h2q58 0 83 -71l2 -39v-143h-52v115q0 80 -42 80h-7q-43 0 -43 -86v-109h-51v323zM2200 1980h49l5 -5v-222q10 -51 45 -51q44 7 44 59v214l5 5h49v-216
q0 -85 -66 -112q-15 -8 -35 -8q-47 0 -82 55q-14 24 -14 57v224zM2435 1980h159v-60h-56v-268h-53v268h-55v55zM2621 1980h71q7 -4 83 -251h2l80 251h73v-328h-54v242h-2l-74 -242h-44q-4 0 -58 182l-19 60h-3v-242h-55v328zM3760 1980h52v-328h-45l-5 5v11l3 2l-3 14
q-29 -40 -78 -40q-67 0 -100 91l-5 39v3q0 94 92 125l23 3q35 0 63 -32h3v107zM2057 1928h36l4 -6v-49h-45v-221h-48v23q-23 -31 -59 -31q-89 14 -89 97v156h51v-104q0 -79 26 -86l18 -5h6q26 0 39 36l3 26v133h53v25zM3476 1928v-55h-31v-221h-47v25h-2q-15 -33 -57 -33
q-68 0 -86 78l-3 29v146h52v-120q0 -50 19 -68l21 -7h9q42 0 42 69v126h27q4 0 4 28l3 3h49zM758 1905q68 0 103 -77q9 -18 12 -54q0 -88 -90 -127l-32 -3q-63 0 -101 73q-12 22 -12 52v10q0 94 101 126h19zM1011 1905h3q74 0 83 -101v-152h-51v119q0 76 -42 76h-5
q-44 0 -44 -76v-119h-52v245h46v-21q30 29 62 29zM1466 1905h7q72 0 105 -89h-60q-16 31 -42 31h-17q-53 -14 -53 -61l-3 -15q12 -69 61 -69h9q22 0 47 27h40l2 3h3l2 -3l2 3l3 -3l2 3l2 -7q-33 -81 -110 -81q-76 0 -110 94l-4 36v3q0 85 77 120q15 8 37 8zM3141 1905h2
q49 0 70 -60v-14h-52q0 16 -16 16h-4q-14 0 -19 -13v-13q0 -9 68 -35q30 -19 30 -59q0 -58 -61 -80l-23 -3q-76 12 -76 83h54q0 -20 27 -25h4q19 0 24 23q0 22 -68 44q-34 27 -34 59q0 66 74 77zM4203 1905q55 0 77 -63q7 -18 7 -65v-125h-52v112q0 83 -40 83h-11
q-33 0 -40 -54v-141h-52v5h-2l2 2v238h47v-21q25 29 64 29zM4432 1905h5q40 0 69 -40v18l-3 3l3 11h47v-208q0 -97 -85 -132l-33 -4h-7q-70 0 -104 80h59q24 -22 45 -23h13q22 0 43 22q15 13 22 52h-3q-32 -40 -73 -40q-57 0 -96 70q-10 18 -14 63q0 88 87 125zM3851 1897
h53v-136q6 -59 40 -59h7q46 0 46 93v102h51v-245h-47l-3 10h3l-3 3v5l3 2v3h-4q0 -23 -57 -31h-3q-59 0 -84 75l-2 85v93zM690 1771q10 -69 63 -69h7q59 14 59 65v15q-13 65 -59 65h-5q-58 0 -65 -76zM3630 1774q13 -72 61 -72h5q58 0 66 75q0 49 -51 70h-22q-37 0 -56 -57z
M4374 1774q8 -72 65 -72h5q59 12 59 72q0 61 -59 73h-14q-56 -16 -56 -62v-11zM3928 1620h52v-57h-52v57zM1054 1402q43 -11 43 -49v-4q0 -17 -32 -60h-28q0 25 31 57v7q0 12 -7 15h-12q-10 -4 -10 -19h-28v6q0 32 33 44zM3349 1339q92 0 138 -99h-60q-37 42 -80 42
q-55 0 -87 -68q-10 -22 -10 -47q0 -78 81 -110l18 -1q36 0 75 39h61q-44 -97 -138 -97q-93 0 -141 112q-10 31 -10 62q0 97 90 152q29 15 63 15zM3664 1339q57 0 103 -47q46 -51 46 -115v-20q0 -89 -91 -146q-33 -13 -63 -13q-89 0 -138 101q-13 33 -13 60v18q0 98 98 151
q29 11 58 11zM2261 1337h2l47 -11h3q11 0 26 11l18 -36q-18 -19 -35 -19h-3l-54 10l-20 -7l-20 36q18 16 36 16zM716 1334h19q118 0 129 -26q25 -26 25 -62q-10 -57 -30 -57v-6q47 -23 47 -66v-18q0 -63 -69 -88l-54 -5h-67v328zM2550 1334h53v-217q6 -61 45 -61q29 0 44 39
l3 30v203l4 6h45l5 -6v-171q0 -118 -40 -133q-24 -26 -64 -26q-55 0 -91 76l-4 54v206zM2805 1334h59q4 0 122 -237h4v237h50l4 -6v-322h-58q-29 48 -125 238h-3v-238h-53v328zM3101 1334h54v-328h-54v328zM3859 1334h8q155 0 174 -40q23 -11 47 -75l4 -36v-11l3 -2
q0 -94 -82 -149q-35 -15 -99 -15h-55v328zM4141 1334h153v-60h-103v-75h101v-57h-101v-74l4 -5h99v-57h-157v322zM3563 1175v-10q0 -76 79 -108l19 -1q68 0 96 86l3 20v15q0 61 -60 94q-12 8 -39 11q-66 0 -96 -83zM770 1274v-67h9q54 0 54 28l3 14q-11 25 -29 25h-37z
M3912 1274v-206l2 -3v-2q104 0 122 76l2 15v29q0 34 -32 68q-25 23 -78 23h-16zM1041 1259h5q38 0 71 -40v32h49v-245h-49v32q-36 -40 -80 -40q-75 0 -101 97l-5 36q0 89 85 125zM1314 1259h3q74 0 83 -102v-151h-51v128q0 67 -42 67h-10q-34 0 -39 -62v-133h-52v245h47v-21
q28 29 61 29zM1543 1259h5q45 0 71 -40v32h47v-219q0 -95 -104 -126h-16q-74 0 -108 82h59q26 -25 44 -25h14q52 0 64 77q-33 -42 -76 -42q-60 0 -101 81l-7 44v16q0 79 85 117zM1912 1259h2q43 0 61 -37h2q32 37 69 37h4q57 0 79 -55q8 -25 8 -45v-153h-52v138q0 44 -23 55
l-12 2h-15q-32 0 -36 -65v-130h-52v136q0 59 -43 59h-8q-32 0 -36 -57v-138h-54v245h50v-21h2q6 24 54 29zM2282 1259q47 0 75 -42v34h47v-245h-47v32q-36 -40 -78 -40q-74 0 -102 92l-6 41q0 90 85 125zM985 1117q0 -48 61 -61h4q45 0 62 46l3 15v22q-12 62 -57 62h-14
q-41 0 -59 -57v-27zM1487 1128q0 -48 43 -68l18 -4h5q47 0 63 57v23q-11 65 -58 65h-12q-50 0 -59 -73zM2225 1131v-14q15 -61 57 -61h14q58 12 58 64v11q0 45 -37 65l-18 5h-10q-64 -8 -64 -70zM770 1150v-82q0 -5 7 -5q77 0 77 45q0 34 -47 42h-37zM2966 753l24 -28
l-51 -55q-18 12 -27 26zM1524 727l85 -54q0 -15 -21 -42l-87 54q18 41 23 42zM2850 693h38l55 -60h-54l-21 26l-23 -26h-54q54 60 59 60zM3422 693h40l56 -60h-54l-24 26h-1q0 -5 -19 -26h-54zM622 685h52q8 -4 47 -137l34 -110q9 8 34 100l48 147h54v-2l-112 -326h-44z
M1159 685h51v-54h-51v54zM1354 685h46l6 -5v-323h-52v328zM2317 685h45l4 -5v-78h31v-52h-31v-193h-53v193h-26v52h26v78zM2425 685h52v-98h2q23 23 54 23h3q57 0 81 -71l3 -38v-144h-52v115q0 81 -39 81h-10q-42 0 -42 -87v-109h-52v328zM2664 685h52v-54h-52v54zM3028 685
h44l6 -5v-78h29v-52h-29v-193h-54v193h-27v52h27v78zM3234 685h52v-328h-52v328zM3957 685h52v-328h-52v328zM4316 685h51v-54h-51v54zM1555 610h5q83 0 110 -102l3 -23v-11q0 -83 -85 -120l-35 -5q-76 0 -111 97l-4 32q0 97 93 130zM1811 610h4q53 0 78 -60q7 -25 7 -81
v-112h-54v146q-7 50 -37 50h-10q-38 0 -42 -57v-139h-54v245h49v-21q26 29 59 29zM2046 610h4q45 0 63 -39h3v31h49v-206q0 -102 -89 -135l-28 -3h-5q-73 0 -106 81h52l37 -20l15 -3h14q50 0 61 72q-33 -39 -73 -39q-62 0 -98 76q-11 23 -12 60q0 85 86 123zM2866 610h2
q82 0 111 -104l2 -25l-2 -27h-172q15 -45 45 -45l14 -3q29 0 49 22h57v-3q-35 -76 -108 -76q-77 0 -111 97l-1 28v8q0 49 32 89q34 39 82 39zM3429 610h5q41 0 70 -39h2v31h47v-245h-47v31h-2q-35 -39 -77 -39q-71 0 -101 89l-5 36v14q0 86 84 120zM3711 610h7
q88 0 107 -128l-2 -1v-15q0 -65 -66 -106q-21 -11 -46 -11q-34 0 -64 32v-99l-5 -5h-49v325h49v-28q31 36 69 36zM4151 610q44 0 75 -39v31h49v-245h-49v31q-35 -39 -77 -39q-92 0 -108 132q0 84 73 121q15 8 37 8zM922 602h50v-136q3 -60 42 -60h5q44 0 44 87v109h52v-245
h-47v24h-5q0 -23 -56 -32h-3q-55 0 -82 68q-4 35 -4 99v81zM1159 602h51v-245h-51v245zM2664 602h52v-245h-52v245zM4316 602h51v-245h-51v245zM1492 488v-16q13 -66 59 -66h4q59 0 66 76q-13 71 -59 71h-11q-59 -16 -59 -65zM1987 472q15 -66 59 -66h11q48 0 59 75v1
q-13 71 -59 71h-14q-39 0 -56 -57v-24zM2805 506h122v2q-16 45 -59 45h-7q-35 0 -56 -47zM3373 474q13 -68 61 -68h5q52 0 65 63v12q-10 72 -57 72h-16q-56 -14 -56 -63zM3642 478q12 -72 61 -72h3q50 0 65 60v22q0 43 -49 65h-22q-47 0 -58 -72v-3zM4095 472q10 -66 66 -66
q43 0 61 48l2 15v16q0 54 -52 68h-18q-42 0 -59 -60v-21zM3416 321h51v-52h-51v52zM4137 321h51v-52h-51v52zM2733 133h4q35 0 43 -50v-2q0 -16 -24 -41l-10 -17h-28q0 25 28 56l3 2v2q-3 19 -9 19h-10q-8 0 -9 -19h-30q6 50 42 50zM1546 116l52 -60l-26 -19l-52 52zM352 79
h4q75 -48 85 -60l-20 -37q-88 49 -88 58zM3490 79l86 -58l-18 -39q-10 0 -91 55q15 36 23 42zM4578 76l19 -42l-91 -52l-20 39l92 58v-3zM1204 53h51v-19l5 -5h14v-36h-14l-5 -5v-279h-46v31q-34 -40 -81 -40q-72 0 -102 105l-3 26q0 102 101 131h14q33 0 66 -33v59l-6 5
h-43v36h49v24zM1480 45h40l56 -61h-53l-23 27l-23 -27h-53zM2641 45h33q12 0 63 -61h-54l-23 27q-19 -21 -19 -27h-58v4zM49 37h160v-60h-56v-268h-50l-4 5v245l2 3v2l-2 2l2 3l-2 2l2 3l-2 3h-54v54zM699 37h47v-73l2 -2l-2 -3v-3l2 -2l-2 -3v-3l2 -2v-2l-2 -3l2 -3h3
q17 24 51 24h3q53 0 77 -58q7 -17 7 -42v-153h-52v127q0 68 -40 68h-8q-43 0 -43 -86v-109h-52v322zM1297 37h47l5 -6v-49h-52v55zM1987 37h52v-198l70 115h62l-78 -118l90 -125v-2h-70q-10 22 -74 115v-115h-52v328zM2271 37v-99q24 24 53 24q57 0 80 -56q10 -19 10 -77
v-120h-54v133q0 62 -41 62h-11q-31 0 -37 -55v-140h-53v314l-1 3v3l1 2l-1 3l1 3h53zM2458 37h51v-55h-51v55zM3148 37h51v-108q27 33 68 33h3q75 0 105 -94l5 -37q0 -75 -64 -120q-30 -11 -49 -11q-41 0 -72 40v-31h-47v328zM4275 37h52v-99h2q23 24 54 24h3q60 0 82 -74
l2 -41v-138h-52v111q0 82 -32 82l-10 2h-12q-37 0 -37 -80v-115h-52v328zM329 -38h3v-58h-5q-42 0 -42 -57v-138h-53v245h47v-21q18 29 50 29zM564 -38q71 0 86 -87v-166h-51v136q-6 59 -41 59h-6q-45 0 -45 -84v-111h-52v245h50v-21q25 29 59 29zM1504 -38q72 0 105 -94
l5 -39q-2 -24 -7 -24h-169q17 -47 62 -47q24 0 48 21h57q-33 -79 -108 -79q-82 0 -113 105v37q0 81 89 117zM2657 -38h5q77 0 107 -97l3 -26v-21l-3 -13h-170q18 -47 53 -47h12q21 0 42 21h59q-34 -79 -105 -79q-84 0 -115 102l-2 29q0 93 91 128zM2915 -38h4q54 0 78 -60
q7 -25 7 -82v-111h-54v138q0 48 -35 57h-11q-38 0 -43 -57v-138h-54v245h50v-21q25 29 58 29zM3508 -38h6q40 0 70 -40h2v32h47v-245h-47v31h-2q-34 -40 -78 -40q-71 0 -101 90l-4 37v12q0 82 77 117q11 6 30 6zM3781 -38h4q62 0 82 -78l3 -84v-91h-54v138q0 48 -38 57h-9
q-38 0 -42 -52v-143h-54v245h49v-21q26 29 59 29zM4133 -38h1q74 0 104 -93l4 -40q0 -88 -84 -126l-25 -3q-41 0 -68 34v-106h-52v326h47v-29q30 37 73 37zM4714 -38h5q34 0 63 -37q27 37 69 37h6q56 0 79 -66l6 -51v-136h-52v122q0 73 -39 73h-7q-35 0 -41 -50v-140l-5 -5
h-48v140q0 42 -31 55h-17q-40 0 -40 -77v-118h-51v245h47v-21q22 29 56 29zM359 -46h49l5 -6v-234l-5 -5h-49v245zM1297 -46h52v-245h-52v245zM1649 -46h52v-136q4 -60 43 -60h4q44 0 44 81v115h52v-245h-47v24h-5q-12 -33 -59 -33q-52 0 -79 63q-5 12 -5 34v157zM2458 -46
h51v-245h-51v245zM4515 -46h51v-245h-51v245zM1077 -169q0 -53 51 -73h12q54 0 66 66v10q0 53 -54 70h-17q-38 0 -58 -57v-16zM1438 -143h122q-18 47 -53 47h-7q-43 0 -62 -44v-3zM2599 -143h122q-21 47 -54 47h-7q-46 0 -61 -47zM3196 -158v-11q10 -73 61 -73h5q64 8 64 71
v5q0 45 -38 65l-18 5h-14q-60 -14 -60 -62zM3452 -173q14 -69 62 -69h11q41 0 59 60v13q-8 73 -56 73h-17q-47 0 -59 -73v-4zM4062 -158v-22q0 -47 59 -62h9q50 0 61 76q-13 70 -58 70h-15q-56 -17 -56 -62z" />
    <glyph glyph-name=".null" horiz-adv-x="0" 
 />
    <glyph glyph-name="nonmarkingreturn" horiz-adv-x="571" 
 />
    <glyph glyph-name="space" unicode=" " horiz-adv-x="577" 
 />
    <glyph glyph-name="exclam" unicode="!" horiz-adv-x="690" 
d="M907 1430l-254 -889h-373l109 889h518zM340 -27q-88 0 -144.5 54.5t-56.5 140.5q0 117 94 208t211 91q88 0 145.5 -56.5t57.5 -140.5q0 -116 -94.5 -206.5t-212.5 -90.5z" />
    <glyph glyph-name="quotedbl" unicode="&#x22;" horiz-adv-x="847" 
d="M1091 1430l-150 -502h-287l152 502h285zM689 1430l-149 -502h-287l152 502h284z" />
    <glyph glyph-name="numbersign" unicode="#" horiz-adv-x="1165" 
d="M1327 1028l-62 -143h-227l-145 -340h227l-59 -144h-230l-172 -401h-143l172 401h-172l-172 -401h-144l172 401h-229l61 144h230l143 340h-227l59 143h232l168 402h143l-168 -402h170l170 402h143l-170 -402h230zM895 885h-174l-144 -340h172z" />
    <glyph glyph-name="dollar" unicode="$" horiz-adv-x="1226" 
d="M1407 1311l-197 -373q-147 123 -280 123q-52 0 -88 -25q-29 -20 -35 -47q-8 -41 116 -74q177 -49 240 -88q133 -82 133 -231q0 -43 -10 -92q-57 -268 -307 -420q-105 -66 -240 -100l-26 -127h-273l25 110q-250 39 -414 168l229 422q158 -174 324 -174q109 0 123 72
q10 45 -113 80q-176 49 -235 83q-129 78 -129 228q0 43 10 92q39 186 209 336q164 143 311 143l33 150h276l-28 -135q161 0 346 -121z" />
    <glyph glyph-name="percent" unicode="%" horiz-adv-x="1542" 
d="M573 729q-129 0 -211 80t-82 203q0 35 8 73q31 146 158 250.5t276 104.5q127 0 211 -81t84 -202q0 -164 -139 -296t-305 -132zM1693 1430l-1327 -1430h-209l1329 1430h207zM1556 340q-33 -150 -158 -250t-270 -100q-127 0 -207 80t-80 200q0 37 8 74q31 145 156 248.5
t272 103.5q133 0 213 -80q74 -77 74 -198q0 -37 -8 -78zM743 1083q8 39 8 70q0 98 -68 98q-47 0 -86 -59q-34 -49 -47 -107q-6 -30 -6 -61q0 -106 68 -106q94 0 131 165zM1302 344q8 39 8 70q0 102 -70 102q-47 0 -88 -59q-32 -49 -47 -113q-8 -39 -8 -70q0 -104 70 -104
q47 0 88 59q32 50 47 115z" />
    <glyph glyph-name="ampersand" unicode="&#x26;" horiz-adv-x="1759" 
d="M1788 0h-615l-76 86q-239 -113 -481 -113q-227 0 -358 117q-119 107 -119 262q0 39 8 76q60 279 430 377q-73 82 -73 192q0 31 6 64q35 166 208 279.5t406 113.5q215 0 336 -102q111 -95 111 -240q0 -37 -9 -74q-49 -227 -352 -340q37 -65 86 -118q141 82 275 204
l204 -295q-102 -94 -266 -188q105 -139 279 -301zM1149 1085q0 68 -68 68q-35 0 -65.5 -25.5t-38.5 -58.5q-11 -45 55 -123q117 133 117 139zM880 362l-137 191q-94 -117 -94 -123q0 -90 111 -90q69 0 120 22z" />
    <glyph glyph-name="quotesingle" unicode="'" horiz-adv-x="446" 
d="M689 1430l-149 -502h-287l152 502h284z" />
    <glyph glyph-name="parenleft" unicode="(" horiz-adv-x="745" 
d="M1046 1417q-213 -166 -340 -401q-135 -248 -135 -506q0 -295 176 -500l-283 -250q-272 277 -272 699q0 127 29 258q57 268 230 522t419 428z" />
    <glyph glyph-name="parenright" unicode=")" horiz-adv-x="747" 
d="M827 715q-59 -285 -233 -534t-432 -419l-160 246q213 164 342 398q139 247 139 501q0 293 -180 514l264 246q289 -266 289 -694q0 -127 -29 -258z" />
    <glyph glyph-name="asterisk" unicode="*" horiz-adv-x="872" 
d="M921 1032q-31 0 -62 13.5t-51 13.5q-51 0 -59 -35q-7 -31 43 -31q34 0 69 13.5t58 13.5q51 0 83.5 -29.5t32.5 -77.5q0 -65 -55 -117.5t-123 -52.5q-72 0 -96 54q-8 18 -17 96q-6 53 -34 53q-31 0 -39 -39q-4 -14 33.5 -61t37.5 -94q0 -17 -4 -33q-28 -127 -176 -127
q-127 0 -127 98q0 12 2 27q13 61 79.5 119.5t68.5 72.5q8 37 -23 37q-28 0 -57 -53q-41 -78 -60 -96q-45 -54 -118 -54q-49 0 -82 32t-33 83q0 68 53 115t121 47q23 0 55.5 -13.5t53.5 -13.5q55 0 59 33q10 31 -39 31q-20 0 -65 -13.5t-62 -13.5q-115 0 -117 105
q0 65 55.5 118.5t123.5 53.5q75 0 100 -54q8 -18 14 -96q4 -53 35 -53q29 0 37 39q4 16 -34 63t-38 94q0 17 4 33q13 56 61 90.5t115 34.5q127 0 127 -94q0 -12 -2 -25q-16 -71 -80.5 -127.5t-66.5 -68.5q-6 -37 22 -37q29 0 58 51q43 80 59 98q45 52 117 52q49 0 84 -32
t35 -83q0 -68 -53.5 -114t-122.5 -46z" />
    <glyph glyph-name="plus" unicode="+" horiz-adv-x="1472" 
d="M1450 981l-82 -385h-308l-65 -309h-391l65 307h-311l82 387h313l64 305h387l-64 -305h310z" />
    <glyph glyph-name="comma" unicode="," horiz-adv-x="587" 
d="M166 -346l-176 100q115 84 227 213q-135 49 -135 180q0 25 6 54q23 104 105 178t192 74q86 0 144.5 -63.5t58.5 -156.5q0 -141 -152 -325q-118 -144 -270 -254z" />
    <glyph glyph-name="hyphen" unicode="-" horiz-adv-x="655" 
d="M761 700l-68 -317h-569l68 317h569z" />
    <glyph glyph-name="hyphen" unicode="&#x2010;" horiz-adv-x="655" 
d="M761 700l-68 -317h-569l68 317h569z" />
    <glyph glyph-name="period" unicode="." horiz-adv-x="583" 
d="M284 -27q-88 0 -144.5 54.5t-56.5 140.5q0 117 94 208t211 91q88 0 145.5 -56.5t57.5 -140.5q0 -116 -94.5 -206.5t-212.5 -90.5z" />
    <glyph glyph-name="slash" unicode="/" horiz-adv-x="729" 
d="M989 1430l-670 -1498l-276 68l674 1497z" />
    <glyph glyph-name="zero" unicode="0" horiz-adv-x="1474" 
d="M1566 723q-71 -336 -315 -551q-236 -207 -524 -207q-244 0 -391.5 154.5t-147.5 406.5q0 92 20 189q66 313 299 528q240 223 539 223q248 0 394.5 -155.5t146.5 -405.5q0 -88 -21 -182zM1056 713q15 67 15 121q0 172 -123 172q-74 0 -135 -74q-64 -80 -95 -219
q-14 -64 -14 -117q0 -172 121 -172q76 0 138.5 74.5t92.5 214.5z" />
    <glyph glyph-name="one" unicode="1" horiz-adv-x="1472" 
d="M1355 1430l-303 -1430h-504l213 999h-201l240 431h555z" />
    <glyph glyph-name="two" unicode="2" horiz-adv-x="1472" 
d="M1573 928q-67 -318 -499 -516h389l-203 -412h-1282q578 420 696 514q363 285 385 389q2 15 2 27q0 88 -90 88q-55 0 -102 -47t-62 -117h-503q51 248 267 424t484 176q256 0 400 -127q129 -115 129 -297q0 -51 -11 -102z" />
    <glyph glyph-name="three" unicode="3" horiz-adv-x="1472" 
d="M1539 1055q-39 -183 -225 -264q172 -66 172 -250q0 -41 -10 -86q-45 -209 -234 -342q-201 -142 -495 -142q-258 0 -419 119t-161 307q0 43 10 90q4 19 13 48h505q-6 -27 -6 -52q0 -118 113 -118q63 0 115.5 45t52.5 108q0 49 -38 79t-93 30q-13 0 -39 -6l63 297
q15 -3 29 -3q119 0 139 101q6 33 -15.5 60.5t-49.5 27.5q-90 0 -135 -105h-480q43 199 232.5 332t445.5 133q238 0 378 -91t140 -245q0 -36 -8 -73z" />
    <glyph glyph-name="four" unicode="4" horiz-adv-x="1472" 
d="M1521 1430l-163 -771h159l-78 -370h-157l-62 -289h-501l61 289h-684l80 377l741 764h604zM932 995l-328 -338h256z" />
    <glyph glyph-name="five" unicode="5" horiz-adv-x="1470" 
d="M1591 1430l-205 -408h-508l-45 -129q107 33 199 33q186 0 303 -80q131 -90 131 -256q0 -45 -10 -96q-49 -230 -264 -375q-221 -150 -529 -150q-239 0 -526 119l145 412q215 -123 433 -123q84 0 145 26q80 37 80 113q0 117 -242 117q-151 0 -393 -68l301 865h985z" />
    <glyph glyph-name="six" unicode="6" horiz-adv-x="1472" 
d="M1601 1430q-62 -58 -256 -216q-189 -149 -258 -196h57q176 0 286.5 -101.5t110.5 -271.5q0 -55 -12 -113q-49 -227 -266 -391q-228 -172 -514 -172q-283 0 -443 140q-145 127 -145 333q0 58 12 117q49 234 316 469l452 402h660zM1023 582q0 55 -39 92t-96 37
q-76 0 -137.5 -61.5t-61.5 -135.5q0 -55 37 -90t94 -35q78 0 140.5 58.5t62.5 134.5z" />
    <glyph glyph-name="seven" unicode="7" horiz-adv-x="1472" 
d="M1765 1430l-1087 -1430h-590l823 999h-661l225 431h1290z" />
    <glyph glyph-name="eight" unicode="8" horiz-adv-x="1470" 
d="M1564 1034q-49 -235 -279 -293q199 -61 199 -247q0 -37 -8 -76q-43 -199 -225 -320q-201 -131 -519 -131q-280 0 -432 105q-141 98 -141 264q0 39 8 82q53 246 332 323q-166 47 -166 215q0 35 8 74q37 168 213 287q201 135 488 135q250 0 393 -100q137 -97 137 -248
q0 -35 -8 -70zM1060 1012q0 41 -28.5 65.5t-67.5 24.5q-51 0 -96 -44t-45 -95q0 -39 25.5 -66t66.5 -27q61 0 103 41t42 101zM976 500q0 49 -31.5 79.5t-80.5 30.5q-66 0 -120.5 -54t-54.5 -118q0 -49 32 -79.5t83 -30.5q68 0 120 52t52 120z" />
    <glyph glyph-name="nine" unicode="9" horiz-adv-x="1474" 
d="M1595 862q-47 -225 -309 -461l-444 -401h-668l516 410q-33 -4 -57 -4q-187 0 -295.5 100t-108.5 266q0 299 260 498q240 184 549 184q273 0 426 -137q144 -127 144 -334q0 -59 -13 -121zM1081 907q0 56 -35.5 90.5t-93.5 34.5q-78 0 -139 -59.5t-61 -134.5
q0 -56 35.5 -91.5t91.5 -35.5q79 0 140.5 59t61.5 137z" />
    <glyph glyph-name="colon" unicode=":" horiz-adv-x="643" 
d="M431 535q-88 0 -144 55t-56 141q0 117 95 207t212 90q86 0 143.5 -55t57.5 -139q0 -119 -94.5 -209t-213.5 -90zM311 -29q-88 0 -142.5 56.5t-54.5 140.5q0 115 93 207t208 92q90 0 148.5 -56.5t58.5 -142.5q0 -116 -96.5 -206.5t-214.5 -90.5z" />
    <glyph glyph-name="semicolon" unicode=";" horiz-adv-x="647" 
d="M432 530q-89 0 -145 56.5t-56 142.5q0 117 95 209t212 92q88 0 145.5 -56t57.5 -143q0 -116 -96.5 -208.5t-212.5 -92.5zM202 -330l-176 101q119 86 225 213q-133 49 -133 180q0 24 6 53q23 105 105 178.5t192 73.5q86 0 144.5 -63.5t58.5 -155.5q0 -141 -152 -326
q-118 -143 -270 -254z" />
    <glyph glyph-name="less" unicode="&#x3c;" horiz-adv-x="952" 
d="M1144 1178l-68 -324l-319 -139l260 -140l-70 -323l-739 463z" />
    <glyph glyph-name="equal" unicode="=" horiz-adv-x="1472" 
d="M1487 1157l-70 -328h-1010l70 328h1010zM1392 705l-69 -330h-1014l70 330h1013z" />
    <glyph glyph-name="greater" unicode="&#x3e;" horiz-adv-x="952" 
d="M1046 715l-936 -463l70 323l317 140l-258 139l68 324z" />
    <glyph glyph-name="question" unicode="?" horiz-adv-x="991" 
d="M1171 1063q-31 -145 -131 -242q-12 -10 -176 -131q-96 -69 -113 -147h-379q27 123 107 213q20 22 141 125q74 63 86 123q8 40 -20.5 68t-79.5 28q-99 0 -291 -113l-47 344q256 129 493 129q211 0 322 -96q96 -84 96 -221q0 -39 -8 -80zM428 -27q-89 0 -142 55.5
t-53 139.5q0 27 6 55q23 105 115 176q86 68 184 68q94 0 148.5 -55.5t54.5 -139.5q0 -118 -96.5 -208.5t-216.5 -90.5z" />
    <glyph glyph-name="at" unicode="@" horiz-adv-x="1591" 
d="M1150 297q-135 0 -135 119q0 16 4 33q-100 -148 -246 -148q-84 0 -140 61.5t-56 176.5q0 51 12 110q45 207 197 363q145 147 282 147q148 0 164 -112l33 88h106l-213 -562q-24 -67 -24 -108q0 -62 51 -62q78 0 186 113q127 133 166 318q15 63 15 122q0 170 -106.5 271.5
t-287.5 101.5q-260 0 -472 -178t-269 -444q-16 -76 -16 -148q0 -211 130 -341t330 -130q150 0 322 84q182 88 307 236l-6 -134q-307 -307 -661 -307q-267 0 -423.5 152.5t-156.5 410.5q0 91 20 191q68 317 332 527t580 210q229 0 371.5 -136t142.5 -345q0 -215 -162 -438
q-174 -242 -377 -242zM1156 920q7 24 7 47q0 98 -93 98q-110 0 -219 -152q-100 -139 -137 -311q-10 -45 -10 -82q0 -123 108 -123q93 0 196 159t148 364z" />
    <glyph glyph-name="A" unicode="A" horiz-adv-x="1454" 
d="M1512 0h-574v182h-344l-80 -182h-571l811 1430h551zM955 545l-8 475l-211 -475h219z" />
    <glyph glyph-name="B" unicode="B" horiz-adv-x="1345" 
d="M1455 1055q-51 -240 -268 -314q207 -34 207 -249q0 -50 -12 -105q-33 -156 -171.5 -271.5t-291.5 -115.5h-848l303 1430h707q184 0 286 -80q97 -78 97 -213q0 -39 -9 -82zM999 991q4 21 4 37q0 82 -119 82h-49l-51 -246h53q135 0 162 127zM915 510q0 76 -80 76h-111
l-53 -244h98q109 0 140 121q6 29 6 47z" />
    <glyph glyph-name="C" unicode="C" horiz-adv-x="1286" 
d="M1558 1321l-252 -442q-112 108 -248 108q-129 0 -231 -98t-102 -227q0 -89 56 -146t146 -57q125 0 312 96l59 -451q-238 -133 -465 -133q-295 0 -469 164t-174 418q0 76 16 156q70 327 349 546q268 211 585 211q221 0 418 -145z" />
    <glyph glyph-name="D" unicode="D" horiz-adv-x="1490" 
d="M1587 721q-70 -330 -307.5 -525.5t-551.5 -195.5h-657l303 1430h668q256 0 409.5 -148.5t153.5 -392.5q0 -82 -18 -168zM1032 739q8 35 8 66q0 92 -57.5 143t-143.5 51h-27l-116 -544h37q239 0 299 284z" />
    <glyph glyph-name="E" unicode="E" horiz-adv-x="1163" 
d="M1455 1430l-192 -402h-444l-27 -119h399l-82 -385h-399l-25 -123h555l-200 -401h-969l303 1430h1081z" />
    <glyph glyph-name="F" unicode="F" horiz-adv-x="1120" 
d="M1449 1430l-190 -402h-440l-27 -119h457l-187 -389h-352l-111 -520h-528l303 1430h1075z" />
    <glyph glyph-name="G" unicode="G" horiz-adv-x="1691" 
d="M1802 840q-2 -29 -15 -115q-67 -313 -321 -528q-266 -228 -616 -228q-295 0 -478.5 161t-183.5 421q0 74 16 154q64 301 326 520q279 233 623 233q229 0 391 -100.5t227 -278.5l-514 -180q-18 51 -70.5 82t-111.5 31q-107 0 -204 -87t-124 -214q-10 -43 -10 -84
q0 -107 60.5 -171.5t162.5 -64.5q156 0 215 133h-223l70 316h780z" />
    <glyph glyph-name="H" unicode="H" horiz-adv-x="1529" 
d="M1761 1430l-304 -1430h-532l104 494h-325l-105 -494h-528l303 1430h528l-98 -465h326l98 465h533z" />
    <glyph glyph-name="I" unicode="I" horiz-adv-x="671" 
d="M902 1430l-303 -1430h-528l303 1430h528z" />
    <glyph glyph-name="J" unicode="J" horiz-adv-x="1042" 
d="M1274 1430l-226 -1065q-32 -154 -172 -267q-157 -125 -379 -125q-295 0 -485 224l279 327q65 -96 131 -96q110 0 133 109l188 893h531z" />
    <glyph glyph-name="K" unicode="K" horiz-adv-x="1472" 
d="M1832 1430l-639 -699l305 -731h-610l-172 553l-117 -553h-528l303 1430h528l-114 -547l428 547h616z" />
    <glyph glyph-name="L" unicode="L" horiz-adv-x="1124" 
d="M1238 412l-202 -412h-965l303 1430h528l-215 -1018h551z" />
    <glyph glyph-name="M" unicode="M" horiz-adv-x="1839" 
d="M1951 1430l-74 -1430h-518l92 694l-346 -694h-371l-49 694l-203 -694h-516l530 1430h527l53 -699l348 699h527z" />
    <glyph glyph-name="N" unicode="N" horiz-adv-x="1585" 
d="M1816 1430l-303 -1430h-527l-268 653l-139 -653h-508l303 1430h518l264 -682l144 682h516z" />
    <glyph glyph-name="O" unicode="O" horiz-adv-x="1697" 
d="M1789 709q-73 -351 -374 -555q-267 -185 -582 -185q-285 0 -463 164t-178 424q0 78 16 158q68 319 336.5 532t616.5 213q282 0 461 -151q186 -160 186 -428q0 -82 -19 -172zM1271 715q6 28 6 55q0 94 -63.5 157.5t-159.5 63.5q-123 0 -226.5 -105.5t-103.5 -228.5
q0 -92 61.5 -151.5t156.5 -59.5q112 0 208.5 76t120.5 193z" />
    <glyph glyph-name="P" unicode="P" horiz-adv-x="1327" 
d="M1494 889q-45 -213 -200.5 -345t-356.5 -132h-250l-88 -412h-528l303 1430h707q217 0 329 -119q101 -105 101 -281q0 -69 -17 -141zM1007 909q4 25 4 43q0 76 -117 76h-75l-54 -252h86q127 0 156 133z" />
    <glyph glyph-name="Q" unicode="Q" horiz-adv-x="1697" 
d="M1794 717q-64 -295 -271 -486l113 -233l-399 -252l-127 260q-105 -39 -281 -39q-291 0 -465 163t-174 421q0 80 18 164q68 319 337.5 532t615.5 213q309 0 485 -174q164 -160 164 -414q0 -75 -16 -155zM1271 715q6 30 6 59q0 92 -60 152.5t-159 60.5q-112 0 -207.5 -79
t-119.5 -193q-6 -31 -6 -60q0 -92 61 -151.5t158 -59.5q112 0 207.5 76t119.5 195z" />
    <glyph glyph-name="R" unicode="R" horiz-adv-x="1378" 
d="M1498 979q-30 -143 -123.5 -247.5t-220.5 -141.5l281 -590h-619l-124 434l-93 -434h-528l303 1430h709q434 0 434 -304q0 -65 -19 -147zM1005 924q4 20 4 37q0 90 -117 90h-69l-58 -267h80q129 0 160 140z" />
    <glyph glyph-name="S" unicode="S" horiz-adv-x="1226" 
d="M1407 1311l-197 -373q-149 125 -280 125q-52 0 -84.5 -22.5t-38.5 -49.5q-11 -47 114 -78q183 -47 244 -84q131 -77 131 -231q0 -45 -10 -96q-49 -228 -250 -379q-209 -158 -485 -158q-267 0 -500 170l229 422q170 -174 324 -174q109 0 123 72q8 39 -113 75
q-168 54 -233 97q-129 88 -129 243q0 48 12 103q37 172 229 317q209 160 463 160q252 0 451 -139z" />
    <glyph glyph-name="T" unicode="T" horiz-adv-x="1091" 
d="M1451 1430l-229 -457h-236l-206 -973h-531l207 973h-256l96 457h1155z" />
    <glyph glyph-name="U" unicode="U" horiz-adv-x="1468" 
d="M1699 1430l-193 -906q-53 -248 -268 -400.5t-514 -152.5q-260 0 -407.5 119t-147.5 318q0 55 12 116l193 906h528l-178 -840q-6 -31 -6 -55q0 -111 104 -111q133 0 168 166l178 840h531z" />
    <glyph glyph-name="V" unicode="V" horiz-adv-x="1406" 
d="M1769 1430l-840 -1430h-453l-231 1430h537l57 -797l391 797h539z" />
    <glyph glyph-name="W" unicode="W" horiz-adv-x="2103" 
d="M2435 1430l-754 -1430h-461v803q0 -8 -338 -803h-461l-147 1430h504l16 -742l346 742h430l31 -742l332 742h502z" />
    <glyph glyph-name="X" unicode="X" horiz-adv-x="1447" 
d="M1764 1430l-584 -664l340 -766h-602l-110 385l-275 -385h-604l664 766l-302 664h568l104 -304l234 304h567z" />
    <glyph glyph-name="Y" unicode="Y" horiz-adv-x="1363" 
d="M1724 1430l-652 -818l-131 -612h-520l131 612l-307 818h567l97 -359l249 359h566z" />
    <glyph glyph-name="Z" unicode="Z" horiz-adv-x="1429" 
d="M1747 1430l-837 -1002h618l-223 -428h-1327l844 999h-615l215 431h1325z" />
    <glyph glyph-name="bracketleft" unicode="[" horiz-adv-x="718" 
d="M981 1626l-62 -285h-108l-266 -1253h108l-59 -283h-506l387 1821h506z" />
    <glyph glyph-name="backslash" unicode="\" horiz-adv-x="651" 
d="M647 1430l-53 -1430h-285l51 1430h287z" />
    <glyph glyph-name="bracketright" unicode="]" horiz-adv-x="716" 
d="M932 1626l-387 -1821h-500l59 283h107l266 1253h-106l61 285h500z" />
    <glyph glyph-name="asciicircum" unicode="^" horiz-adv-x="1044" 
d="M1050 295h-328l-78 291l-198 -291h-326l641 838z" />
    <glyph glyph-name="underscore" unicode="_" horiz-adv-x="1073" 
d="M1033 -205l-31 -143h-1077l31 143h1077z" />
    <glyph glyph-name="grave" unicode="`" horiz-adv-x="393" 
d="M635 1217l-209 -101l-197 291l279 135z" />
    <glyph glyph-name="a" unicode="a" 
d="M1474 999l-213 -999h-461l23 102q-135 -129 -334 -129q-156 0 -248 93q-98 98 -98 270q0 70 16 147q52 246 215 400q156 145 344 145q189 0 275 -121l20 92h461zM882 520q4 21 4 39q0 96 -86 96q-61 0 -102 -62.5t-41 -127.5q0 -92 88 -92q105 0 137 147z" />
    <glyph glyph-name="b" unicode="b" horiz-adv-x="1335" 
d="M1386 518q-55 -258 -213 -405q-150 -140 -348 -140q-211 0 -277 125l-20 -98h-457l258 1210l545 273l-121 -570q149 113 295 113q158 0 252 -94q102 -98 102 -270q0 -68 -16 -144zM884 504q6 26 6 51q0 100 -86 100q-47 0 -85 -38.5t-50 -100.5q-6 -24 -6 -45
q0 -96 88 -96q45 0 83 35.5t50 93.5z" />
    <glyph glyph-name="c" unicode="c" horiz-adv-x="993" 
d="M1175 952l-184 -356q-82 61 -162 61q-66 0 -117 -57t-51 -125q0 -110 117 -110q84 0 172 41l30 -328q-194 -115 -409 -115q-182 0 -301 120t-119 304q0 57 12 115q47 223 240.5 381.5t433.5 158.5q180 0 338 -90z" />
    <glyph glyph-name="d" unicode="d" horiz-adv-x="1335" 
d="M1579 1481l-316 -1481h-461l23 102q-49 -55 -149.5 -94t-202.5 -39q-158 0 -246 109q-82 102 -82 272q0 78 18 162q48 225 202.5 369.5t342.5 144.5q146 0 260 -119l64 301zM886 516q4 23 4 43q0 96 -83 96q-113 0 -144 -145q-4 -23 -4 -41q0 -94 84 -94q113 0 143 141z
" />
    <glyph glyph-name="e" unicode="e" horiz-adv-x="1112" 
d="M1255 635l-616 -283q24 -45 65 -45q51 0 90 51l273 -186q-209 -213 -486 -213q-192 0 -314 114.5t-122 297.5q0 53 12 110q49 234 238.5 393.5t417.5 159.5q266 0 381 -198q47 -84 61 -201zM888 647q-41 62 -110 62q-66 0 -123 -47.5t-70 -110.5q-2 -12 0 -43z" />
    <glyph glyph-name="f" unicode="f" horiz-adv-x="776" 
d="M1162 1430l-169 -357q-27 23 -68 23q-25 0 -48.5 -17.5t-27.5 -36.5l-8 -43h203l-181 -370h-100l-133 -629h-485l133 629h-203l180 370h103l20 95q31 143 152 249q145 130 356 130q102 0 276 -43z" />
    <glyph glyph-name="g" unicode="g" horiz-adv-x="1325" 
d="M1466 999l-186 -876q-49 -232 -252 -367q-217 -145 -572 -145q-264 0 -446 100l240 312q92 -76 276 -76q252 0 287 151l14 62q-127 -133 -334 -133q-157 0 -250.5 96t-93.5 260q0 61 15 131q49 225 203.5 368.5t347.5 143.5q182 0 270 -125l20 98h461zM887 559
q0 94 -82 94q-47 0 -86 -39q-45 -41 -60 -110q-4 -21 -4 -39q0 -90 92 -90q62 0 103 63q37 58 37 121z" />
    <glyph glyph-name="h" unicode="h" horiz-adv-x="1267" 
d="M1341 684l-146 -684h-487l108 514q7 25 7 43q0 57 -60 57q-74 0 -96 -102l-109 -512h-487l256 1204l545 271l-119 -557q154 120 311 120q133 0 210 -73.5t77 -194.5q0 -41 -10 -86z" />
    <glyph glyph-name="i" unicode="i" horiz-adv-x="630" 
d="M857 1278q-22 -111 -113 -184.5t-196 -73.5q-92 0 -151.5 54t-59.5 143q0 26 6 55q23 106 114 181t200 75q88 0 147.5 -56.5t59.5 -142.5q0 -26 -7 -51zM782 1047l-224 -1047h-487l164 774z" />
    <glyph glyph-name="j" unicode="j" horiz-adv-x="630" 
d="M858 1282q-22 -111 -109 -185.5t-192 -74.5q-100 0 -158.5 55.5t-58.5 141.5q0 122 98.5 215.5t221.5 93.5q92 0 148 -54.5t56 -140.5q0 -24 -6 -51zM782 1051l-299 -1407h-487l242 1138z" />
    <glyph glyph-name="k" unicode="k" horiz-adv-x="1275" 
d="M1519 999l-442 -464l284 -535h-608l-121 344l-74 -344h-487l256 1206l545 269l-172 -811l248 335h571z" />
    <glyph glyph-name="l" unicode="l" horiz-adv-x="630" 
d="M874 1481l-316 -1481h-487l256 1208z" />
    <glyph glyph-name="m" unicode="m" horiz-adv-x="1804" 
d="M1877 682l-145 -682h-471l117 547q6 28 6 49q0 41 -37 41q-76 0 -96 -96l-115 -541h-471l121 571q2 11 2 23q0 47 -47 47q-60 0 -76 -74l-121 -567h-473l166 782l528 269l-35 -168q136 147 310 147q186 0 243 -182q158 182 359 182q117 0 181.5 -66.5t64.5 -183.5
q0 -47 -11 -98z" />
    <glyph glyph-name="n" unicode="n" horiz-adv-x="1267" 
d="M1337 666l-142 -666h-487l110 524q5 23 5 41q0 53 -58 53q-74 0 -98 -118l-107 -500h-487l166 782l512 273l-31 -148q125 125 338 125q291 0 291 -260q0 -49 -12 -106z" />
    <glyph glyph-name="o" unicode="o" horiz-adv-x="1222" 
d="M1273 506q-49 -236 -244.5 -394.5t-426.5 -158.5q-199 0 -326 124t-127 310q0 53 12 109q47 225 245 384.5t427 159.5q207 0 334 -129q117 -123 117 -303q0 -51 -11 -102zM821 496q4 22 4 43q0 92 -82 92q-43 0 -81 -37t-50 -98q-4 -21 -4 -41q0 -93 82 -93
q102 0 131 134z" />
    <glyph glyph-name="p" unicode="p" 
d="M1381 487q-51 -237 -217 -387q-154 -137 -328 -137q-180 0 -258 125l-55 -264l-539 -238l301 1413h457l-25 -112q141 135 359 135q155 0 241 -109q80 -100 80 -270q0 -74 -16 -156zM883 520q0 98 -86 98q-47 0 -86 -37.5t-53 -101.5q-4 -22 -4 -41q0 -100 82 -100
q67 0 110 59q37 54 37 123z" />
    <glyph glyph-name="q" unicode="q" 
d="M1474 999l-250 -1173l-538 -238l106 500q-127 -121 -313 -121q-156 0 -246 103.5t-90 273.5q0 70 16 145q47 224 209 379.5t342 155.5q84 0 162 -36t121 -93l22 104h459zM878 481q6 25 6 45q0 92 -82 92q-114 0 -145 -145q-4 -22 -4 -43q0 -90 82 -90q113 0 143 141z" />
    <glyph glyph-name="r" unicode="r" horiz-adv-x="937" 
d="M1220 991l-252 -461q-47 58 -121 58q-162 0 -207 -207l-82 -381h-487l166 778l514 275l-33 -158q160 131 330 131q82 0 172 -35z" />
    <glyph glyph-name="s" unicode="s" horiz-adv-x="1017" 
d="M1138 950l-160 -297q-149 92 -225 92q-69 0 -80 -47q-8 -41 88 -65q148 -37 187 -60q104 -55 104 -170q0 -204 -184 -333q-164 -115 -377 -115q-270 0 -469 113l174 323q125 -115 248 -115q82 0 92 48q6 26 -86 49q-125 30 -174 63q-96 58 -96 170q0 31 8 68
q33 155 180 258q162 110 399 110q195 0 371 -92z" />
    <glyph glyph-name="t" unicode="t" horiz-adv-x="765" 
d="M1064 999l-211 -370h-102l-133 -629h-488l133 629h-180l846 835l-98 -465h233z" />
    <glyph glyph-name="u" unicode="u" horiz-adv-x="1255" 
d="M1396 999l-135 -628q-41 -193 -225 -303q-172 -103 -420 -103q-223 0 -350 85t-127 237q0 41 10 84l135 628h488l-113 -528q-6 -27 -6 -45q0 -53 57 -53q68 0 88 98l113 528h485z" />
    <glyph glyph-name="v" unicode="v" horiz-adv-x="1185" 
d="M1455 999l-614 -999h-498l-188 999h520l19 -520l239 520h522z" />
    <glyph glyph-name="w" unicode="w" horiz-adv-x="1703" 
d="M1961 999l-580 -999h-438l-2 418l-190 -418h-430l-152 999h487l19 -487l223 487h350l-10 -487l236 487h487z" />
    <glyph glyph-name="x" unicode="x" horiz-adv-x="1286" 
d="M1505 999l-444 -481l270 -518h-579l-66 203l-151 -203h-578l489 518l-239 481h553l55 -190l135 190h555z" />
    <glyph glyph-name="y" unicode="y" horiz-adv-x="1267" 
d="M1523 999l-878 -1355h-545l303 415l-219 940h532l33 -467l236 467h538z" />
    <glyph glyph-name="z" unicode="z" horiz-adv-x="1171" 
d="M1385 999l-535 -600h367l-217 -399h-1014l537 600h-365l217 399h1010z" />
    <glyph glyph-name="braceleft" unicode="{" horiz-adv-x="729" 
d="M1026 1671l-35 -170h-24q-113 0 -134 -96l-106 -504q-14 -70 -78.5 -124t-138.5 -62q61 -6 101 -49t40 -103q0 -16 -4 -35l-106 -503q-5 -19 -5 -31q0 -66 97 -66h24l-37 -170h-284q-160 0 -160 144q0 26 6 55l129 614q4 19 4 35q0 107 -106 109q57 2 104 42t60 101
l131 615q43 198 237 198h285z" />
    <glyph glyph-name="bar" unicode="|" horiz-adv-x="401" 
d="M647 1430l-303 -1430h-287l303 1430h287z" />
    <glyph glyph-name="braceright" unicode="}" horiz-adv-x="729" 
d="M852 1473l-131 -615q-4 -16 -4 -33q0 -108 106 -110q-55 -2 -103 -42t-61 -102l-129 -614q-41 -199 -239 -199h-285l37 170h26q111 0 132 97l106 503q14 70 75.5 124.5t141.5 62.5q-65 8 -103 49t-38 100q0 19 4 37l106 504q5 18 5 33q0 63 -95 63h-26l35 170h284
q162 0 162 -143q0 -27 -6 -55z" />
    <glyph glyph-name="asciitilde" unicode="~" horiz-adv-x="1032" 
d="M1170 922q-36 -170 -129 -277q-98 -113 -229 -113q-82 0 -205 54.5t-141 54.5q-25 0 -52.5 -35t-35.5 -80h-209q37 181 132 287.5t226 106.5q66 0 189 -55.5t155 -55.5q66 0 91 113h208z" />
    <glyph glyph-name="dieresis" unicode="&#xa8;" horiz-adv-x="1024" 
 />
    <glyph glyph-name="copyright" unicode="&#xa9;" horiz-adv-x="1714" 
d="M1750 715q-65 -307 -328.5 -524.5t-572.5 -217.5q-264 0 -432 167t-168 421q0 76 16 154q64 305 328 523t571 218q267 0 435 -167t168 -421q0 -75 -17 -153zM1613 721q14 65 14 127q0 211 -140 346t-349 135q-238 0 -453 -172q-227 -180 -282 -442q-15 -68 -15 -131
q0 -213 148 -351q139 -131 342 -131q243 0 456 170q222 181 279 449zM1396 1055l-115 -129q-59 63 -153 63q-127 0 -224.5 -81t-124.5 -206q-6 -28 -6 -57q0 -94 62.5 -155.5t161.5 -61.5q104 0 192 68l59 -131q-135 -97 -307 -97q-160 0 -256 94.5t-96 245.5q0 51 12 105
q39 184 194.5 311t338.5 127q168 0 262 -96z" />
    <glyph glyph-name="registered" unicode="&#xae;" horiz-adv-x="1714" 
d="M1750 715q-65 -307 -328.5 -524.5t-572.5 -217.5q-264 0 -432 167t-168 421q0 76 16 154q64 305 328 523t571 218q267 0 435 -167t168 -421q0 -75 -17 -153zM1627 840q0 204 -127 344q-133 147 -354 147q-258 0 -474 -183t-269 -433q-13 -62 -13 -121
q0 -209 137.5 -350.5t346.5 -141.5q288 0 520.5 225.5t232.5 512.5zM1339 883q-21 -103 -109 -168q-70 -51 -125 -51l160 -365h-203l-156 383l-82 -383h-174l181 848h268q248 0 248 -189q0 -34 -8 -75zM1164 915q0 91 -118 91h-72l-53 -254h65q72 0 125 47t53 116z" />
    <glyph glyph-name="acute" unicode="&#xb4;" horiz-adv-x="1024" 
 />
    <glyph glyph-name="paragraph" unicode="&#xb6;" horiz-adv-x="1232" 
d="M1311 1157l-246 -1157h-170l246 1157h170zM1479 1430l-33 -158h-686q-129 0 -235.5 -103.5t-106.5 -232.5q0 -94 62.5 -157.5t160.5 -63.5h119l94 442h172l-246 -1157h-172l119 557h-119q-153 0 -251.5 97.5t-98.5 244.5q0 45 10 92q39 183 192.5 311t334.5 128h684z" />
    <glyph glyph-name="onequarter" unicode="&#xbc;" horiz-adv-x="1310" 
d="M716 1509l-154 -714h-252l107 499h-100l122 215h277zM1298 1497l-957 -1565h-219l965 1565h211zM1386 713l-82 -385h80l-39 -183h-78l-31 -147h-252l31 147h-342l41 189l371 379h301zM1091 496l-164 -166h129z" />
    <glyph glyph-name="onehalf" unicode="&#xbd;" horiz-adv-x="1310" 
d="M696 1509l-154 -714h-252l107 499h-100l122 215h277zM1278 1497l-957 -1565h-219l965 1565h211zM1413 465q-35 -160 -250 -258h194l-100 -207h-643q274 199 350 256q180 143 193 197q12 57 -45 57q-64 0 -82 -82h-252q26 123 132.5 211t242.5 88q129 0 200 -63
q66 -58 66 -148q0 -24 -6 -51z" />
    <glyph glyph-name="threequarters" unicode="&#xbe;" horiz-adv-x="1581" 
d="M935 1298q-18 -92 -115 -133q86 -32 86 -125q0 -20 -4 -43q-22 -104 -118 -170q-101 -71 -248 -71q-129 0 -209 59t-80 154q0 22 4 45q2 10 8 24h254q-4 -14 -4 -28q0 -58 55 -58q68 0 82 64q7 28 -12.5 47.5t-50.5 19.5q-6 0 -19 -2l33 148h15q59 0 69 49q4 16 -8 30.5
t-27 14.5q-45 0 -67 -53h-240q21 100 116 166.5t224 66.5q119 0 189.5 -46t70.5 -122q0 -18 -4 -37zM1523 1497l-957 -1565h-219l965 1565h211zM1621 719l-82 -385h80l-39 -182h-78l-32 -148h-252l33 148h-342l38 188l373 379h301zM1326 502l-164 -166h129z" />
    <glyph glyph-name="Agrave" unicode="&#xc0;" horiz-adv-x="1454" 
d="M1512 0h-574v182h-344l-80 -182h-571l811 1430h551zM955 545l-8 475l-211 -475h219zM1190 1585l-209 -100l-196 291l278 135z" />
    <glyph glyph-name="Aacute" unicode="&#xc1;" horiz-adv-x="1454" 
d="M1512 0h-574v182h-344l-80 -182h-571l811 1430h551zM955 545l-8 475l-211 -475h219zM1270 1792l-340 -315l-170 100l289 350z" />
    <glyph glyph-name="uni1EA2" unicode="&#x1ea2;" horiz-adv-x="1454" 
d="M1512 0h-574v182h-344l-80 -182h-571l811 1430h551zM955 545l-8 475l-211 -475h219zM1371 1807q-18 -78 -75 -129q-7 -5 -101 -70q-55 -37 -65 -78h-217q15 65 61 113q12 12 81 67q42 34 50 65q4 22 -12.5 36.5t-45.5 14.5q-56 0 -167 -60l-27 184q147 68 283 68
q121 0 185 -51q55 -45 55 -118q0 -20 -5 -42z" />
    <glyph glyph-name="Atilde" unicode="&#xc3;" horiz-adv-x="1454" 
d="M1512 0h-574v182h-344l-80 -182h-571l811 1430h551zM955 545l-8 475l-211 -475h219zM1393 1808l-49 -235q-80 -29 -156 -29q-53 0 -161.5 23.5t-151.5 23.5q-88 0 -176 -49l51 238q76 35 164 35q49 0 141 -23t158 -23q94 0 180 39z" />
    <glyph glyph-name="uni1EA0" unicode="&#x1ea0;" horiz-adv-x="1454" 
d="M1512 0h-574v182h-344l-80 -182h-571l811 1430h551zM955 545l-8 475l-211 -475h219zM639 -495q-131 0 -131 133q0 88 61.5 159t147.5 71q62 0 97.5 -38t35.5 -99q0 -89 -62.5 -157.5t-148.5 -68.5z" />
    <glyph glyph-name="Acircumflex" unicode="&#xc2;" horiz-adv-x="1454" 
d="M1512 0h-574v182h-344l-80 -182h-571l811 1430h551zM955 545l-8 475l-211 -475h219zM1420 1669l-107 -172l-272 141l-334 -141l-33 172l418 211z" />
    <glyph glyph-name="uni1EA6" unicode="&#x1ea6;" horiz-adv-x="1454" 
d="M1512 0h-574v182h-344l-80 -182h-571l811 1430h551zM955 545l-8 475l-211 -475h219zM1420 1669l-107 -172l-272 141l-334 -141l-33 172l418 211zM1019 1916l-209 -100l-196 291l278 135z" />
    <glyph glyph-name="uni1EA4" unicode="&#x1ea4;" horiz-adv-x="1454" 
d="M1512 0h-574v182h-344l-80 -182h-571l811 1430h551zM955 545l-8 475l-211 -475h219zM1420 1669l-107 -172l-272 141l-334 -141l-33 172l418 211zM1722 2103l-340 -315l-170 100l289 350z" />
    <glyph glyph-name="uni1EA8" unicode="&#x1ea8;" horiz-adv-x="1454" 
d="M1512 0h-574v182h-344l-80 -182h-571l811 1430h551zM955 545l-8 475l-211 -475h219zM1420 1669l-107 -172l-272 141l-334 -141l-33 172l418 211zM1702 2098q-18 -78 -75 -129q-7 -5 -101 -70q-55 -37 -65 -78h-217q15 65 61 113q12 12 81 67q42 34 50 65q4 22 -12.5 36.5
t-45.5 14.5q-56 0 -167 -60l-27 184q147 68 283 68q121 0 185 -51q55 -45 55 -118q0 -20 -5 -42z" />
    <glyph glyph-name="uni1EAA" unicode="&#x1eaa;" horiz-adv-x="1454" 
d="M1512 0h-574v182h-344l-80 -182h-571l811 1430h551zM955 545l-8 475l-211 -475h219zM1420 1669l-107 -172l-272 141l-334 -141l-33 172l418 211zM1544 2139l-49 -235q-80 -29 -156 -29q-53 0 -161.5 23.5t-151.5 23.5q-88 0 -176 -49l51 238q76 35 164 35q49 0 141 -23
t158 -23q94 0 180 39z" />
    <glyph glyph-name="uni1EAC" unicode="&#x1eac;" horiz-adv-x="1454" 
d="M1512 0h-574v182h-344l-80 -182h-571l811 1430h551zM955 545l-8 475l-211 -475h219zM1420 1669l-107 -172l-272 141l-334 -141l-33 172l418 211zM639 -495q-131 0 -131 133q0 88 61.5 159t147.5 71q62 0 97.5 -38t35.5 -99q0 -89 -62.5 -157.5t-148.5 -68.5z" />
    <glyph glyph-name="Abreve" unicode="&#x102;" horiz-adv-x="1454" 
d="M1512 0h-574v182h-344l-80 -182h-571l811 1430h551zM955 545l-8 475l-211 -475h219zM1473 1802q-64 -121 -182.5 -195.5t-245.5 -74.5t-215 74.5t-101 195.5l179 174q-7 -86 47.5 -142t140.5 -56t164 56t108 142z" />
    <glyph glyph-name="uni1EB0" unicode="&#x1eb0;" horiz-adv-x="1454" 
d="M1512 0h-574v182h-344l-80 -182h-571l811 1430h551zM955 545l-8 475l-211 -475h219zM1280 1966l-209 -100l-196 291l278 135zM1473 1802q-64 -121 -182.5 -195.5t-245.5 -74.5t-215 74.5t-101 195.5l179 174q-7 -86 47.5 -142t140.5 -56t164 56t108 142z" />
    <glyph glyph-name="uni1EAE" unicode="&#x1eae;" horiz-adv-x="1454" 
d="M1512 0h-574v182h-344l-80 -182h-571l811 1430h551zM955 545l-8 475l-211 -475h219zM1511 2173l-340 -315l-170 100l289 350zM1473 1802q-64 -121 -182.5 -195.5t-245.5 -74.5t-215 74.5t-101 195.5l179 174q-7 -86 47.5 -142t140.5 -56t164 56t108 142z" />
    <glyph glyph-name="uni1EB2" unicode="&#x1eb2;" horiz-adv-x="1454" 
d="M1512 0h-574v182h-344l-80 -182h-571l811 1430h551zM955 545l-8 475l-211 -475h219zM1471 2188q-18 -78 -75 -129q-7 -5 -101 -70q-55 -37 -65 -78h-217q15 65 61 113q12 12 81 67q42 34 50 65q4 22 -12.5 36.5t-45.5 14.5q-56 0 -167 -60l-27 184q147 68 283 68
q121 0 185 -51q55 -45 55 -118q0 -20 -5 -42zM1473 1802q-64 -121 -182.5 -195.5t-245.5 -74.5t-215 74.5t-101 195.5l179 174q-7 -86 47.5 -142t140.5 -56t164 56t108 142z" />
    <glyph glyph-name="uni1EB4" unicode="&#x1eb4;" horiz-adv-x="1454" 
d="M1512 0h-574v182h-344l-80 -182h-571l811 1430h551zM955 545l-8 475l-211 -475h219zM1625 2250l-49 -235q-80 -29 -156 -29q-53 0 -161.5 23.5t-151.5 23.5q-88 0 -176 -49l51 238q76 35 164 35q49 0 141 -23t158 -23q94 0 180 39zM1473 1802q-64 -121 -182.5 -195.5
t-245.5 -74.5t-215 74.5t-101 195.5l179 174q-7 -86 47.5 -142t140.5 -56t164 56t108 142z" />
    <glyph glyph-name="uni1EB6" unicode="&#x1eb6;" horiz-adv-x="1454" 
d="M1512 0h-574v182h-344l-80 -182h-571l811 1430h551zM955 545l-8 475l-211 -475h219zM639 -495q-131 0 -131 133q0 88 61.5 159t147.5 71q62 0 97.5 -38t35.5 -99q0 -89 -62.5 -157.5t-148.5 -68.5zM1473 1802q-64 -121 -182.5 -195.5t-245.5 -74.5t-215 74.5t-101 195.5
l179 174q-7 -86 47.5 -142t140.5 -56t164 56t108 142z" />
    <glyph glyph-name="Egrave" unicode="&#xc8;" horiz-adv-x="1163" 
d="M1455 1430l-192 -402h-444l-27 -119h399l-82 -385h-399l-25 -123h555l-200 -401h-969l303 1430h1081zM1025 1577l-209 -100l-196 290l278 136z" />
    <glyph glyph-name="Eacute" unicode="&#xc9;" horiz-adv-x="1163" 
d="M1455 1430l-192 -402h-444l-27 -119h399l-82 -385h-399l-25 -123h555l-200 -401h-969l303 1430h1081zM1132 1794l-340 -315l-170 100l289 350z" />
    <glyph glyph-name="uni1EBA" unicode="&#x1eba;" horiz-adv-x="1163" 
d="M1455 1430l-192 -402h-444l-27 -119h399l-82 -385h-399l-25 -123h555l-200 -401h-969l303 1430h1081zM1219 1807q-17 -78 -75 -129q-7 -5 -101 -70q-55 -37 -64 -78h-218q16 65 62 113q11 12 81 67q42 34 49 65q5 22 -11.5 36.5t-46.5 14.5q-56 0 -166 -60l-27 184
q146 68 283 68q120 0 184 -51q55 -45 55 -118q0 -20 -5 -42z" />
    <glyph glyph-name="uni1EBC" unicode="&#x1ebc;" horiz-adv-x="1163" 
d="M1455 1430l-192 -402h-444l-27 -119h399l-82 -385h-399l-25 -123h555l-200 -401h-969l303 1430h1081zM1262 1808l-49 -235q-80 -29 -155 -29q-54 0 -162.5 23.5t-151.5 23.5q-88 0 -176 -49l51 238q76 35 164 35q49 0 141.5 -23t157.5 -23q94 0 180 39z" />
    <glyph glyph-name="uni1EB8" unicode="&#x1eb8;" horiz-adv-x="1163" 
d="M1455 1430l-192 -402h-444l-27 -119h399l-82 -385h-399l-25 -123h555l-200 -401h-969l303 1430h1081zM468 -495q-131 0 -131 133q0 88 61.5 159t147.5 71q61 0 97 -38t36 -99q0 -89 -62.5 -157.5t-148.5 -68.5z" />
    <glyph glyph-name="Ecircumflex" unicode="&#xca;" horiz-adv-x="1163" 
d="M1455 1430l-192 -402h-444l-27 -119h399l-82 -385h-399l-25 -123h555l-200 -401h-969l303 1430h1081zM1290 1665l-107 -172l-272 141l-334 -141l-33 172l418 211z" />
    <glyph glyph-name="uni1EC0" unicode="&#x1ec0;" horiz-adv-x="1163" 
d="M1455 1430l-192 -402h-444l-27 -119h399l-82 -385h-399l-25 -123h555l-200 -401h-969l303 1430h1081zM894 1908l-209 -100l-196 290l278 136zM1290 1665l-107 -172l-272 141l-334 -141l-33 172l418 211z" />
    <glyph glyph-name="uni1EBE" unicode="&#x1ebe;" horiz-adv-x="1163" 
d="M1455 1430l-192 -402h-444l-27 -119h399l-82 -385h-399l-25 -123h555l-200 -401h-969l303 1430h1081zM1593 2075l-340 -315l-170 100l289 350zM1290 1665l-107 -172l-272 141l-334 -141l-33 172l418 211z" />
    <glyph glyph-name="uni1EC2" unicode="&#x1ec2;" horiz-adv-x="1163" 
d="M1455 1430l-192 -402h-444l-27 -119h399l-82 -385h-399l-25 -123h555l-200 -401h-969l303 1430h1081zM1560 2108q-17 -78 -75 -129q-7 -5 -101 -70q-55 -37 -64 -78h-218q16 65 62 113q11 12 81 67q42 34 49 65q5 22 -11.5 36.5t-46.5 14.5q-56 0 -166 -60l-27 184
q146 68 283 68q120 0 184 -51q55 -45 55 -118q0 -20 -5 -42zM1290 1665l-107 -172l-272 141l-334 -141l-33 172l418 211z" />
    <glyph glyph-name="uni1EC4" unicode="&#x1ec4;" horiz-adv-x="1163" 
d="M1455 1430l-192 -402h-444l-27 -119h399l-82 -385h-399l-25 -123h555l-200 -401h-969l303 1430h1081zM1422 2149l-49 -235q-80 -29 -155 -29q-54 0 -162.5 23.5t-151.5 23.5q-88 0 -176 -49l51 238q76 35 164 35q49 0 141.5 -23t157.5 -23q94 0 180 39zM1290 1665
l-107 -172l-272 141l-334 -141l-33 172l418 211z" />
    <glyph glyph-name="uni1EC6" unicode="&#x1ec6;" horiz-adv-x="1163" 
d="M1455 1430l-192 -402h-444l-27 -119h399l-82 -385h-399l-25 -123h555l-200 -401h-969l303 1430h1081zM468 -495q-131 0 -131 133q0 88 61.5 159t147.5 71q61 0 97 -38t36 -99q0 -89 -62.5 -157.5t-148.5 -68.5zM1290 1665l-107 -172l-272 141l-334 -141l-33 172l418 211z
" />
    <glyph glyph-name="Igrave" unicode="&#xcc;" horiz-adv-x="671" 
d="M902 1430l-303 -1430h-528l303 1430h528zM788 1606l-209 -101l-197 291l279 135z" />
    <glyph glyph-name="Iacute" unicode="&#xcd;" horiz-adv-x="671" 
d="M902 1430l-303 -1430h-528l303 1430h528zM882 1810l-340 -315l-170 100l289 351z" />
    <glyph glyph-name="uni1EC8" unicode="&#x1ec8;" horiz-adv-x="671" 
d="M902 1430l-303 -1430h-528l303 1430h528zM1008 1807q-18 -78 -75 -129q-7 -5 -101 -70q-56 -37 -65 -78h-217q15 65 61 113q12 12 81 67q42 34 49 65q5 22 -11.5 36.5t-45.5 14.5q-57 0 -167 -60l-27 184q147 68 283 68q121 0 184 -51q55 -45 55 -118q0 -20 -4 -42z" />
    <glyph glyph-name="Itilde" unicode="&#x128;" horiz-adv-x="671" 
d="M902 1430l-303 -1430h-528l303 1430h528zM1051 1808l-50 -235q-79 -29 -155 -29q-53 0 -162 23.5t-152 23.5q-88 0 -176 -49l52 238q75 35 163 35q50 0 142 -23t157 -23q95 0 181 39z" />
    <glyph glyph-name="uni1ECA" unicode="&#x1eca;" horiz-adv-x="671" 
d="M902 1430l-303 -1430h-528l303 1430h528zM256 -495q-131 0 -131 133q0 88 61.5 159t147.5 71q61 0 97 -38t36 -99q0 -89 -62.5 -157.5t-148.5 -68.5z" />
    <glyph glyph-name="Ograve" unicode="&#xd2;" horiz-adv-x="1697" 
d="M1789 709q-73 -351 -374 -555q-267 -185 -582 -185q-285 0 -463 164t-178 424q0 78 16 158q68 319 336.5 532t616.5 213q282 0 461 -151q186 -160 186 -428q0 -82 -19 -172zM1271 715q6 28 6 55q0 94 -63.5 157.5t-159.5 63.5q-123 0 -226.5 -105.5t-103.5 -228.5
q0 -92 61.5 -151.5t156.5 -59.5q112 0 208.5 76t120.5 193zM1282 1602l-209 -101l-197 291l279 135z" />
    <glyph glyph-name="Oacute" unicode="&#xd3;" horiz-adv-x="1697" 
d="M1789 709q-73 -351 -374 -555q-267 -185 -582 -185q-285 0 -463 164t-178 424q0 78 16 158q68 319 336.5 532t616.5 213q282 0 461 -151q186 -160 186 -428q0 -82 -19 -172zM1271 715q6 28 6 55q0 94 -63.5 157.5t-159.5 63.5q-123 0 -226.5 -105.5t-103.5 -228.5
q0 -92 61.5 -151.5t156.5 -59.5q112 0 208.5 76t120.5 193zM1417 1817l-340 -316l-170 101l289 350z" />
    <glyph glyph-name="uni1ECE" unicode="&#x1ece;" horiz-adv-x="1697" 
d="M1789 709q-73 -351 -374 -555q-267 -185 -582 -185q-285 0 -463 164t-178 424q0 78 16 158q68 319 336.5 532t616.5 213q282 0 461 -151q186 -160 186 -428q0 -82 -19 -172zM1271 715q6 28 6 55q0 94 -63.5 157.5t-159.5 63.5q-123 0 -226.5 -105.5t-103.5 -228.5
q0 -92 61.5 -151.5t156.5 -59.5q112 0 208.5 76t120.5 193zM1530 1807q-18 -78 -75 -129q-7 -5 -101 -70q-55 -37 -65 -78h-217q15 65 61 113q12 12 81 67q42 34 49 65q5 22 -11.5 36.5t-45.5 14.5q-57 0 -167 -60l-27 184q147 68 283 68q121 0 184 -51q56 -45 56 -118
q0 -20 -5 -42z" />
    <glyph glyph-name="Otilde" unicode="&#xd5;" horiz-adv-x="1697" 
d="M1789 709q-73 -351 -374 -555q-267 -185 -582 -185q-285 0 -463 164t-178 424q0 78 16 158q68 319 336.5 532t616.5 213q282 0 461 -151q186 -160 186 -428q0 -82 -19 -172zM1271 715q6 28 6 55q0 94 -63.5 157.5t-159.5 63.5q-123 0 -226.5 -105.5t-103.5 -228.5
q0 -92 61.5 -151.5t156.5 -59.5q112 0 208.5 76t120.5 193zM1515 1804l-49 -235q-80 -29 -156 -29q-53 0 -161.5 23.5t-151.5 23.5q-88 0 -176 -49l51 238q76 34 164 34q49 0 141 -22.5t158 -22.5q94 0 180 39z" />
    <glyph glyph-name="uni1ECC" unicode="&#x1ecc;" horiz-adv-x="1697" 
d="M1789 709q-73 -351 -374 -555q-267 -185 -582 -185q-285 0 -463 164t-178 424q0 78 16 158q68 319 336.5 532t616.5 213q282 0 461 -151q186 -160 186 -428q0 -82 -19 -172zM1271 715q6 28 6 55q0 94 -63.5 157.5t-159.5 63.5q-123 0 -226.5 -105.5t-103.5 -228.5
q0 -92 61.5 -151.5t156.5 -59.5q112 0 208.5 76t120.5 193zM598 -495q-131 0 -131 133q0 88 61.5 159t147.5 71q62 0 97.5 -38t35.5 -99q0 -89 -62.5 -157.5t-148.5 -68.5z" />
    <glyph glyph-name="Ocircumflex" unicode="&#xd4;" horiz-adv-x="1697" 
d="M1789 709q-73 -351 -374 -555q-267 -185 -582 -185q-285 0 -463 164t-178 424q0 78 16 158q68 319 336.5 532t616.5 213q282 0 461 -151q186 -160 186 -428q0 -82 -19 -172zM1271 715q6 28 6 55q0 94 -63.5 157.5t-159.5 63.5q-123 0 -226.5 -105.5t-103.5 -228.5
q0 -92 61.5 -151.5t156.5 -59.5q112 0 208.5 76t120.5 193zM1564 1671l-106 -172l-273 141l-334 -141l-32 172l417 211z" />
    <glyph glyph-name="uni1ED2" unicode="&#x1ed2;" horiz-adv-x="1697" 
d="M1789 709q-73 -351 -374 -555q-267 -185 -582 -185q-285 0 -463 164t-178 424q0 78 16 158q68 319 336.5 532t616.5 213q282 0 461 -151q186 -160 186 -428q0 -82 -19 -172zM1271 715q6 28 6 55q0 94 -63.5 157.5t-159.5 63.5q-123 0 -226.5 -105.5t-103.5 -228.5
q0 -92 61.5 -151.5t156.5 -59.5q112 0 208.5 76t120.5 193zM1182 1903l-209 -101l-197 291l279 135zM1564 1671l-106 -172l-273 141l-334 -141l-32 172l417 211z" />
    <glyph glyph-name="uni1ED0" unicode="&#x1ed0;" horiz-adv-x="1697" 
d="M1789 709q-73 -351 -374 -555q-267 -185 -582 -185q-285 0 -463 164t-178 424q0 78 16 158q68 319 336.5 532t616.5 213q282 0 461 -151q186 -160 186 -428q0 -82 -19 -172zM1271 715q6 28 6 55q0 94 -63.5 157.5t-159.5 63.5q-123 0 -226.5 -105.5t-103.5 -228.5
q0 -92 61.5 -151.5t156.5 -59.5q112 0 208.5 76t120.5 193zM1848 2088l-340 -316l-170 101l289 350zM1564 1671l-106 -172l-273 141l-334 -141l-32 172l417 211z" />
    <glyph glyph-name="uni1ED4" unicode="&#x1ed4;" horiz-adv-x="1697" 
d="M1789 709q-73 -351 -374 -555q-267 -185 -582 -185q-285 0 -463 164t-178 424q0 78 16 158q68 319 336.5 532t616.5 213q282 0 461 -151q186 -160 186 -428q0 -82 -19 -172zM1271 715q6 28 6 55q0 94 -63.5 157.5t-159.5 63.5q-123 0 -226.5 -105.5t-103.5 -228.5
q0 -92 61.5 -151.5t156.5 -59.5q112 0 208.5 76t120.5 193zM1811 2119q-18 -78 -75 -129q-7 -5 -101 -70q-55 -37 -65 -78h-217q15 65 61 113q12 12 81 67q42 34 49 65q5 22 -11.5 36.5t-45.5 14.5q-57 0 -167 -60l-27 184q147 68 283 68q121 0 184 -51q56 -45 56 -118
q0 -20 -5 -42zM1564 1671l-106 -172l-273 141l-334 -141l-32 172l417 211z" />
    <glyph glyph-name="uni1ED6" unicode="&#x1ed6;" horiz-adv-x="1697" 
d="M1789 709q-73 -351 -374 -555q-267 -185 -582 -185q-285 0 -463 164t-178 424q0 78 16 158q68 319 336.5 532t616.5 213q282 0 461 -151q186 -160 186 -428q0 -82 -19 -172zM1271 715q6 28 6 55q0 94 -63.5 157.5t-159.5 63.5q-123 0 -226.5 -105.5t-103.5 -228.5
q0 -92 61.5 -151.5t156.5 -59.5q112 0 208.5 76t120.5 193zM1755 2145l-49 -235q-80 -29 -156 -29q-53 0 -161.5 23.5t-151.5 23.5q-88 0 -176 -49l51 238q76 34 164 34q49 0 141 -22.5t158 -22.5q94 0 180 39zM1564 1671l-106 -172l-273 141l-334 -141l-32 172l417 211z
" />
    <glyph glyph-name="uni1ED8" unicode="&#x1ed8;" horiz-adv-x="1697" 
d="M1789 709q-73 -351 -374 -555q-267 -185 -582 -185q-285 0 -463 164t-178 424q0 78 16 158q68 319 336.5 532t616.5 213q282 0 461 -151q186 -160 186 -428q0 -82 -19 -172zM1271 715q6 28 6 55q0 94 -63.5 157.5t-159.5 63.5q-123 0 -226.5 -105.5t-103.5 -228.5
q0 -92 61.5 -151.5t156.5 -59.5q112 0 208.5 76t120.5 193zM648 -495q-131 0 -131 133q0 88 61.5 159t147.5 71q62 0 97.5 -38t35.5 -99q0 -89 -62.5 -157.5t-148.5 -68.5zM1564 1671l-106 -172l-273 141l-334 -141l-32 172l417 211z" />
    <glyph glyph-name="Ugrave" unicode="&#xd9;" horiz-adv-x="1468" 
d="M1234 1552l-209 -100l-196 291l278 135zM1687 1430l-193 -906q-53 -248 -268 -400.5t-514 -152.5q-260 0 -407.5 119t-147.5 318q0 55 12 116l193 906h528l-178 -840q-6 -31 -6 -55q0 -111 104 -111q133 0 168 166l178 840h531z" />
    <glyph glyph-name="Uacute" unicode="&#xda;" horiz-adv-x="1468" 
d="M1699 1430l-193 -906q-53 -248 -268 -400.5t-514 -152.5q-260 0 -407.5 119t-147.5 318q0 55 12 116l193 906h528l-178 -840q-6 -31 -6 -55q0 -111 104 -111q133 0 168 166l178 840h531zM1371 1780l-340 -316l-170 101l289 350z" />
    <glyph glyph-name="uni1EE6" unicode="&#x1ee6;" horiz-adv-x="1468" 
d="M1699 1430l-193 -906q-53 -248 -268 -400.5t-514 -152.5q-260 0 -407.5 119t-147.5 318q0 55 12 116l193 906h528l-178 -840q-6 -31 -6 -55q0 -111 104 -111q133 0 168 166l178 840h531zM1408 1807q-17 -78 -75 -129q-7 -5 -101 -70q-55 -37 -64 -78h-218q16 65 62 113
q11 12 81 67q42 34 49 65q5 22 -11.5 36.5t-46.5 14.5q-56 0 -166 -60l-27 184q146 68 283 68q121 0 184 -51q55 -45 55 -118q0 -20 -5 -42z" />
    <glyph glyph-name="Utilde" unicode="&#x168;" horiz-adv-x="1468" 
d="M1699 1430l-193 -906q-53 -248 -268 -400.5t-514 -152.5q-260 0 -407.5 119t-147.5 318q0 55 12 116l193 906h528l-178 -840q-6 -31 -6 -55q0 -111 104 -111q133 0 168 166l178 840h531zM1485 1804l-50 -235q-79 -29 -155 -29q-54 0 -162.5 23.5t-151.5 23.5
q-88 0 -176 -49l51 238q76 34 164 34q49 0 141.5 -22.5t157.5 -22.5q95 0 181 39z" />
    <glyph glyph-name="uni1EE4" unicode="&#x1ee4;" horiz-adv-x="1468" 
d="M1699 1430l-193 -906q-53 -248 -268 -400.5t-514 -152.5q-260 0 -407.5 119t-147.5 318q0 55 12 116l193 906h528l-178 -840q-6 -31 -6 -55q0 -111 104 -111q133 0 168 166l178 840h531zM557 -495q-131 0 -131 133q0 88 61.5 159t147.5 71q61 0 97 -38t36 -99
q0 -89 -62.5 -157.5t-148.5 -68.5z" />
    <glyph glyph-name="Uhorn" unicode="&#x1af;" horiz-adv-x="1468" 
d="M1699 1430l-193 -906q-53 -248 -268 -400.5t-514 -152.5q-260 0 -407.5 119t-147.5 318q0 55 12 116l193 906h528l-178 -840q-6 -31 -6 -55q0 -111 104 -111q133 0 168 166l178 840h531zM1507 1169l-34 148q94 47 184 125q-89 50 -73 143q3 17 10 37q29 71 95.5 113.5
t144.5 29.5q61 -10 95 -61.5t23 -116.5q-17 -100 -146 -213q-100 -88 -299 -205z" />
    <glyph glyph-name="uni1EEA" unicode="&#x1eea;" horiz-adv-x="1468" 
d="M1234 1552l-209 -100l-197 291l279 135zM1664 1267l-158 -743q-53 -248 -268 -400.5t-514 -152.5q-260 0 -407.5 119t-147.5 318q0 55 12 116l193 906h528l-178 -840q-6 -31 -6 -55q0 -111 104 -111q133 0 168 166l178 840h475l14 12q-89 50 -73 143q3 17 10 37
q29 71 95.5 113.5t144.5 29.5q61 -10 95 -61.5t23 -116.5q-17 -100 -146 -213q-56 -49 -142 -107z" />
    <glyph glyph-name="uni1EE8" unicode="&#x1ee8;" horiz-adv-x="1468" 
d="M1371 1780l-340 -316l-170 101l289 350zM1664 1267l-158 -743q-53 -248 -268 -400.5t-514 -152.5q-260 0 -407.5 119t-147.5 318q0 55 12 116l193 906h528l-178 -840q-6 -31 -6 -55q0 -111 104 -111q133 0 168 166l178 840h475l14 12q-89 50 -73 143q3 17 10 37
q29 71 95.5 113.5t144.5 29.5q61 -10 95 -61.5t23 -116.5q-17 -100 -146 -213q-56 -49 -142 -107z" />
    <glyph glyph-name="uni1EEC" unicode="&#x1eec;" horiz-adv-x="1468" 
d="M1408 1807q-17 -78 -75 -129q-7 -5 -101 -70q-55 -37 -64 -78h-218q16 65 62 113q11 12 81 67q42 34 49 65q5 22 -11.5 36.5t-46.5 14.5q-56 0 -166 -60l-27 184q146 68 283 68q120 0 184 -51q55 -45 55 -118q0 -20 -5 -42zM1664 1267l-158 -743q-53 -248 -268 -400.5
t-514 -152.5q-260 0 -407.5 119t-147.5 318q0 55 12 116l193 906h528l-178 -840q-6 -31 -6 -55q0 -111 104 -111q133 0 168 166l178 840h475l14 12q-89 50 -73 143q3 17 10 37q29 71 95.5 113.5t144.5 29.5q61 -10 95 -61.5t23 -116.5q-17 -100 -146 -213q-56 -49 -142 -107
z" />
    <glyph glyph-name="uni1EEE" unicode="&#x1eee;" horiz-adv-x="1468" 
d="M1485 1804l-50 -235q-80 -29 -155 -29q-54 0 -162.5 23.5t-151.5 23.5q-88 0 -176 -49l51 238q76 34 164 34q49 0 141.5 -22.5t157.5 -22.5q95 0 181 39zM1664 1267l-158 -743q-53 -248 -268 -400.5t-514 -152.5q-260 0 -407.5 119t-147.5 318q0 55 12 116l193 906h528
l-178 -840q-6 -31 -6 -55q0 -111 104 -111q133 0 168 166l178 840h475l14 12q-89 50 -73 143q3 17 10 37q29 71 95.5 113.5t144.5 29.5q61 -10 95 -61.5t23 -116.5q-17 -100 -146 -213q-56 -49 -142 -107z" />
    <glyph glyph-name="uni1EF0" unicode="&#x1ef0;" horiz-adv-x="1468" 
d="M557 -495q-131 0 -131 133q0 88 61.5 159t147.5 71q61 0 97 -38t36 -99q0 -89 -62.5 -157.5t-148.5 -68.5zM1664 1267l-158 -743q-53 -248 -268 -400.5t-514 -152.5q-260 0 -407.5 119t-147.5 318q0 55 12 116l193 906h528l-178 -840q-6 -31 -6 -55q0 -111 104 -111
q133 0 168 166l178 840h475l14 12q-89 50 -73 143q3 17 10 37q29 71 95.5 113.5t144.5 29.5q61 -10 95 -61.5t23 -116.5q-17 -100 -146 -213q-56 -49 -142 -107z" />
    <glyph glyph-name="Ohorn" unicode="&#x1a0;" horiz-adv-x="1697" 
d="M1271 715q6 28 6 55q0 94 -63.5 157.5t-159.5 63.5q-123 0 -226.5 -105.5t-103.5 -228.5q0 -92 61.5 -151.5t155.5 -59.5q113 0 209 76t121 193zM1665 1267q142 -151 142 -386q0 -82 -18 -172q-74 -351 -375 -555q-266 -185 -581 -185q-285 0 -463 164t-178 424
q0 78 16 158q67 319 335.5 532t616.5 213q229 0 389 -99q55 35 108 81q-89 50 -73 143q3 17 10 37q29 71 95.5 113.5t144.5 29.5q61 -10 95 -61.5t23 -116.5q-17 -100 -146 -213q-55 -49 -141 -107z" />
    <glyph glyph-name="uni1EDC" unicode="&#x1edc;" horiz-adv-x="1697" 
d="M1271 715q6 28 6 55q0 94 -63.5 157.5t-159.5 63.5q-123 0 -226.5 -105.5t-103.5 -228.5q0 -92 61.5 -151.5t155.5 -59.5q113 0 209 76t121 193zM1281 1602l-209 -101l-196 291l278 135zM1665 1267q142 -151 142 -386q0 -82 -18 -172q-74 -351 -375 -555
q-266 -185 -581 -185q-285 0 -463 164t-178 424q0 78 16 158q67 319 335.5 532t616.5 213q229 0 389 -99q55 35 108 81q-89 50 -73 143q3 17 10 37q29 71 95.5 113.5t144.5 29.5q61 -10 95 -61.5t23 -116.5q-17 -100 -146 -213q-55 -49 -141 -107z" />
    <glyph glyph-name="uni1EDA" unicode="&#x1eda;" horiz-adv-x="1697" 
d="M1271 715q6 28 6 55q0 94 -63.5 157.5t-159.5 63.5q-123 0 -226.5 -105.5t-103.5 -228.5q0 -92 61.5 -151.5t155.5 -59.5q113 0 209 76t121 193zM1416 1817l-340 -316l-170 101l289 350zM1665 1267q142 -151 142 -386q0 -82 -18 -172q-74 -351 -375 -555
q-266 -185 -581 -185q-285 0 -463 164t-178 424q0 78 16 158q67 319 335.5 532t616.5 213q229 0 389 -99q55 35 108 81q-89 50 -73 143q3 17 10 37q29 71 95.5 113.5t144.5 29.5q61 -10 95 -61.5t23 -116.5q-17 -100 -146 -213q-55 -49 -141 -107z" />
    <glyph glyph-name="uni1EDE" unicode="&#x1ede;" horiz-adv-x="1697" 
d="M1271 715q6 28 6 55q0 94 -63.5 157.5t-159.5 63.5q-123 0 -226.5 -105.5t-103.5 -228.5q0 -92 61.5 -151.5t155.5 -59.5q113 0 209 76t121 193zM1529 1807q-17 -78 -75 -129q-7 -5 -101 -70q-55 -37 -64 -78h-218q16 65 62 113q11 12 81 67q42 34 49 65q5 22 -11.5 36.5
t-46.5 14.5q-56 0 -166 -60l-27 184q146 68 283 68q120 0 184 -51q55 -45 55 -118q0 -20 -5 -42zM1665 1267q142 -151 142 -386q0 -82 -18 -172q-74 -351 -375 -555q-266 -185 -581 -185q-285 0 -463 164t-178 424q0 78 16 158q67 319 335.5 532t616.5 213q229 0 389 -99
q55 35 108 81q-89 50 -73 143q3 17 10 37q29 71 95.5 113.5t144.5 29.5q61 -10 95 -61.5t23 -116.5q-17 -100 -146 -213q-55 -49 -141 -107z" />
    <glyph glyph-name="uni1EE0" unicode="&#x1ee0;" horiz-adv-x="1697" 
d="M1271 715q6 28 6 55q0 94 -63.5 157.5t-159.5 63.5q-123 0 -226.5 -105.5t-103.5 -228.5q0 -92 61.5 -151.5t155.5 -59.5q113 0 209 76t121 193zM1515 1804l-50 -235q-80 -29 -155 -29q-54 0 -162.5 23.5t-151.5 23.5q-88 0 -176 -49l51 238q76 34 164 34
q49 0 141.5 -22.5t157.5 -22.5q95 0 181 39zM1665 1267q142 -151 142 -386q0 -82 -18 -172q-74 -351 -375 -555q-266 -185 -581 -185q-285 0 -463 164t-178 424q0 78 16 158q67 319 335.5 532t616.5 213q229 0 389 -99q55 35 108 81q-89 50 -73 143q3 17 10 37
q29 71 95.5 113.5t144.5 29.5q61 -10 95 -61.5t23 -116.5q-17 -100 -146 -213q-55 -49 -141 -107z" />
    <glyph glyph-name="uni1EE2" unicode="&#x1ee2;" horiz-adv-x="1697" 
d="M1271 715q6 28 6 55q0 94 -63.5 157.5t-159.5 63.5q-123 0 -226.5 -105.5t-103.5 -228.5q0 -92 61.5 -151.5t155.5 -59.5q113 0 209 76t121 193zM598 -495q-131 0 -131 133q0 88 61.5 159t147.5 71q61 0 97 -38t36 -99q0 -89 -62.5 -157.5t-148.5 -68.5zM1665 1267
q142 -151 142 -386q0 -82 -18 -172q-74 -351 -375 -555q-266 -185 -581 -185q-285 0 -463 164t-178 424q0 78 16 158q67 319 335.5 532t616.5 213q229 0 389 -99q55 35 108 81q-89 50 -73 143q3 17 10 37q29 71 95.5 113.5t144.5 29.5q61 -10 95 -61.5t23 -116.5
q-17 -100 -146 -213q-55 -49 -141 -107z" />
    <glyph glyph-name="Ygrave" unicode="&#x1ef2;" horiz-adv-x="1363" 
d="M1724 1430l-652 -818l-131 -612h-520l131 612l-307 818h567l97 -359l249 359h566zM1204 1552l-209 -100l-196 291l278 135z" />
    <glyph glyph-name="Yacute" unicode="&#xdd;" horiz-adv-x="1363" 
d="M1724 1430l-652 -818l-131 -612h-520l131 612l-307 818h567l97 -359l249 359h566zM1236 1808l-340 -315l-170 100l289 351z" />
    <glyph glyph-name="uni1EF6" unicode="&#x1ef6;" horiz-adv-x="1363" 
d="M1724 1430l-652 -818l-131 -612h-520l131 612l-307 818h567l97 -359l249 359h566zM1339 1807q-18 -78 -76 -129q-7 -5 -100 -70q-56 -37 -65 -78h-217q15 65 61 113q12 12 81 67q42 34 49 65q5 22 -11.5 36.5t-45.5 14.5q-57 0 -167 -60l-27 184q147 68 283 68
q121 0 184 -51q55 -45 55 -118q0 -20 -4 -42z" />
    <glyph glyph-name="uni1EF8" unicode="&#x1ef8;" horiz-adv-x="1363" 
d="M1724 1430l-652 -818l-131 -612h-520l131 612l-307 818h567l97 -359l249 359h566zM1485 1804l-49 -235q-80 -29 -156 -29q-53 0 -161.5 23.5t-151.5 23.5q-88 0 -177 -49l52 238q75 34 164 34q49 0 141 -22.5t158 -22.5q94 0 180 39z" />
    <glyph glyph-name="uni1EF4" unicode="&#x1ef4;" horiz-adv-x="1363" 
d="M1724 1430l-652 -818l-131 -612h-520l131 612l-307 818h567l97 -359l249 359h566zM578 -495q-131 0 -131 133q0 88 61.5 159t147.5 71q61 0 97 -38t36 -99q0 -89 -62.5 -157.5t-148.5 -68.5z" />
    <glyph glyph-name="agrave" unicode="&#xe0;" 
d="M1474 999l-213 -999h-461l23 102q-135 -129 -334 -129q-156 0 -248 93q-98 98 -98 270q0 70 16 147q52 246 215 400q156 145 344 145q189 0 275 -121l20 92h461zM882 520q4 21 4 39q0 96 -86 96q-61 0 -102 -62.5t-41 -127.5q0 -92 88 -92q105 0 137 147zM1011 1198
l-209 -100l-196 291l278 135z" />
    <glyph glyph-name="aacute" unicode="&#xe1;" 
d="M1474 999l-213 -999h-461l23 102q-135 -129 -334 -129q-156 0 -248 93q-98 98 -98 270q0 70 16 147q52 246 215 400q156 145 344 145q189 0 275 -121l20 92h461zM882 520q4 21 4 39q0 96 -86 96q-61 0 -102 -62.5t-41 -127.5q0 -92 88 -92q105 0 137 147zM1204 1415
l-340 -315l-170 100l289 350z" />
    <glyph glyph-name="uni1EA3" unicode="&#x1ea3;" 
d="M1474 999l-213 -999h-461l23 102q-135 -129 -334 -129q-156 0 -248 93q-98 98 -98 270q0 70 16 147q52 246 215 400q156 145 344 145q189 0 275 -121l20 92h461zM882 520q4 21 4 39q0 96 -86 96q-61 0 -102 -62.5t-41 -127.5q0 -92 88 -92q105 0 137 147zM1318 1385
q-18 -78 -75 -129q-7 -5 -101 -70q-55 -37 -65 -78h-217q15 65 61 113q12 12 81 67q42 34 49 65q5 22 -11.5 36.5t-45.5 14.5q-56 0 -167 -60l-27 184q147 68 283 68q121 0 185 -51q55 -45 55 -118q0 -20 -5 -42z" />
    <glyph glyph-name="atilde" unicode="&#xe3;" 
d="M1474 999l-213 -999h-461l23 102q-135 -129 -334 -129q-156 0 -248 93q-98 98 -98 270q0 70 16 147q52 246 215 400q156 145 344 145q189 0 275 -121l20 92h461zM882 520q4 21 4 39q0 96 -86 96q-61 0 -102 -62.5t-41 -127.5q0 -92 88 -92q105 0 137 147zM1306 1419
l-49 -235q-80 -29 -156 -29q-53 0 -161.5 23.5t-151.5 23.5q-88 0 -176 -49l51 238q76 34 164 34q49 0 141.5 -22.5t157.5 -22.5q94 0 180 39z" />
    <glyph glyph-name="uni1EA1" unicode="&#x1ea1;" 
d="M1474 999l-213 -999h-461l23 102q-135 -129 -334 -129q-156 0 -248 93q-98 98 -98 270q0 70 16 147q52 246 215 400q156 145 344 145q189 0 275 -121l20 92h461zM882 520q4 21 4 39q0 96 -86 96q-61 0 -102 -62.5t-41 -127.5q0 -92 88 -92q105 0 137 147zM578 -495
q-131 0 -131 133q0 88 61.5 159t147.5 71q62 0 97.5 -38t35.5 -99q0 -89 -62.5 -157.5t-148.5 -68.5z" />
    <glyph glyph-name="acircumflex" unicode="&#xe2;" 
d="M1474 999l-213 -999h-461l23 102q-135 -129 -334 -129q-156 0 -248 93q-98 98 -98 270q0 70 16 147q52 246 215 400q156 145 344 145q189 0 275 -121l20 92h461zM882 520q4 21 4 39q0 96 -86 96q-61 0 -102 -62.5t-41 -127.5q0 -92 88 -92q105 0 137 147zM1294 1290
l-107 -172l-272 142l-334 -142l-32 172l417 211z" />
    <glyph glyph-name="uni1EA7" unicode="&#x1ea7;" 
d="M1474 999l-213 -999h-461l23 102q-135 -129 -334 -129q-156 0 -248 93q-98 98 -98 270q0 70 16 147q52 246 215 400q156 145 344 145q189 0 275 -121l20 92h461zM882 520q4 21 4 39q0 96 -86 96q-61 0 -102 -62.5t-41 -127.5q0 -92 88 -92q105 0 137 147zM901 1550
l-209 -100l-196 291l278 135zM1294 1290l-107 -172l-272 142l-334 -142l-32 172l417 211z" />
    <glyph glyph-name="uni1EA5" unicode="&#x1ea5;" 
d="M1474 999l-213 -999h-461l23 102q-135 -129 -334 -129q-156 0 -248 93q-98 98 -98 270q0 70 16 147q52 246 215 400q156 145 344 145q189 0 275 -121l20 92h461zM882 520q4 21 4 39q0 96 -86 96q-61 0 -102 -62.5t-41 -127.5q0 -92 88 -92q105 0 137 147zM1545 1716
l-340 -315l-170 100l289 350zM1294 1290l-107 -172l-272 142l-334 -142l-32 172l417 211z" />
    <glyph glyph-name="uni1EA9" unicode="&#x1ea9;" 
d="M1474 999l-213 -999h-461l23 102q-135 -129 -334 -129q-156 0 -248 93q-98 98 -98 270q0 70 16 147q52 246 215 400q156 145 344 145q189 0 275 -121l20 92h461zM882 520q4 21 4 39q0 96 -86 96q-61 0 -102 -62.5t-41 -127.5q0 -92 88 -92q105 0 137 147zM1549 1737
q-18 -78 -75 -129q-7 -5 -101 -70q-55 -37 -65 -78h-217q15 65 61 113q12 12 81 67q42 34 49 65q5 22 -11.5 36.5t-45.5 14.5q-56 0 -167 -60l-27 184q147 68 283 68q121 0 185 -51q55 -45 55 -118q0 -20 -5 -42zM1294 1290l-107 -172l-272 142l-334 -142l-32 172l417 211z
" />
    <glyph glyph-name="uni1EAB" unicode="&#x1eab;" 
d="M1474 999l-213 -999h-461l23 102q-135 -129 -334 -129q-156 0 -248 93q-98 98 -98 270q0 70 16 147q52 246 215 400q156 145 344 145q189 0 275 -121l20 92h461zM882 520q4 21 4 39q0 96 -86 96q-61 0 -102 -62.5t-41 -127.5q0 -92 88 -92q105 0 137 147zM1416 1771
l-49 -235q-80 -29 -156 -29q-53 0 -161.5 23.5t-151.5 23.5q-88 0 -176 -49l51 238q76 34 164 34q49 0 141.5 -22.5t157.5 -22.5q94 0 180 39zM1294 1290l-107 -172l-272 142l-334 -142l-32 172l417 211z" />
    <glyph glyph-name="uni1EAD" unicode="&#x1ead;" 
d="M1474 999l-213 -999h-461l23 102q-135 -129 -334 -129q-156 0 -248 93q-98 98 -98 270q0 70 16 147q52 246 215 400q156 145 344 145q189 0 275 -121l20 92h461zM882 520q4 21 4 39q0 96 -86 96q-61 0 -102 -62.5t-41 -127.5q0 -92 88 -92q105 0 137 147zM578 -495
q-131 0 -131 133q0 88 61.5 159t147.5 71q62 0 97.5 -38t35.5 -99q0 -89 -62.5 -157.5t-148.5 -68.5zM1294 1290l-107 -172l-272 142l-334 -142l-32 172l417 211z" />
    <glyph glyph-name="abreve" unicode="&#x103;" 
d="M1474 999l-213 -999h-461l23 102q-135 -129 -334 -129q-156 0 -248 93q-98 98 -98 270q0 70 16 147q52 246 215 400q156 145 344 145q189 0 275 -121l20 92h461zM882 520q4 21 4 39q0 96 -86 96q-61 0 -102 -62.5t-41 -127.5q0 -92 88 -92q105 0 137 147zM1412 1360
q-63 -121 -182 -195.5t-246 -74.5t-215 74.5t-100 195.5l178 174q-6 -86 48.5 -142t140.5 -56t163.5 56t108.5 142z" />
    <glyph glyph-name="uni1EB1" unicode="&#x1eb1;" 
d="M1474 999l-213 -999h-461l23 102q-135 -129 -334 -129q-156 0 -248 93q-98 98 -98 270q0 70 16 147q52 246 215 400q156 145 344 145q189 0 275 -121l20 92h461zM882 520q4 21 4 39q0 96 -86 96q-61 0 -102 -62.5t-41 -127.5q0 -92 88 -92q105 0 137 147zM1193 1550
l-209 -100l-196 291l278 135zM1412 1360q-63 -121 -182 -195.5t-246 -74.5t-215 74.5t-100 195.5l178 174q-6 -86 48.5 -142t140.5 -56t163.5 56t108.5 142z" />
    <glyph glyph-name="uni1EAF" unicode="&#x1eaf;" 
d="M1474 999l-213 -999h-461l23 102q-135 -129 -334 -129q-156 0 -248 93q-98 98 -98 270q0 70 16 147q52 246 215 400q156 145 344 145q189 0 275 -121l20 92h461zM882 520q4 21 4 39q0 96 -86 96q-61 0 -102 -62.5t-41 -127.5q0 -92 88 -92q105 0 137 147zM1455 1716
l-340 -315l-170 100l289 350zM1412 1360q-63 -121 -182 -195.5t-246 -74.5t-215 74.5t-100 195.5l178 174q-6 -86 48.5 -142t140.5 -56t163.5 56t108.5 142z" />
    <glyph glyph-name="uni1EB3" unicode="&#x1eb3;" 
d="M1474 999l-213 -999h-461l23 102q-135 -129 -334 -129q-156 0 -248 93q-98 98 -98 270q0 70 16 147q52 246 215 400q156 145 344 145q189 0 275 -121l20 92h461zM882 520q4 21 4 39q0 96 -86 96q-61 0 -102 -62.5t-41 -127.5q0 -92 88 -92q105 0 137 147zM1418 1737
q-18 -78 -75 -129q-7 -5 -101 -70q-55 -37 -65 -78h-217q15 65 61 113q12 12 81 67q42 34 49 65q5 22 -11.5 36.5t-45.5 14.5q-56 0 -167 -60l-27 184q147 68 283 68q121 0 185 -51q55 -45 55 -118q0 -20 -5 -42zM1412 1360q-63 -121 -182 -195.5t-246 -74.5t-215 74.5
t-100 195.5l178 174q-6 -86 48.5 -142t140.5 -56t163.5 56t108.5 142z" />
    <glyph glyph-name="uni1EB5" unicode="&#x1eb5;" 
d="M1474 999l-213 -999h-461l23 102q-135 -129 -334 -129q-156 0 -248 93q-98 98 -98 270q0 70 16 147q52 246 215 400q156 145 344 145q189 0 275 -121l20 92h461zM882 520q4 21 4 39q0 96 -86 96q-61 0 -102 -62.5t-41 -127.5q0 -92 88 -92q105 0 137 147zM1587 1811
l-49 -235q-80 -29 -156 -29q-53 0 -161.5 23.5t-151.5 23.5q-88 0 -176 -49l51 238q76 34 164 34q49 0 141.5 -22.5t157.5 -22.5q94 0 180 39zM1412 1360q-63 -121 -182 -195.5t-246 -74.5t-215 74.5t-100 195.5l178 174q-6 -86 48.5 -142t140.5 -56t163.5 56t108.5 142z
" />
    <glyph glyph-name="uni1EB7" unicode="&#x1eb7;" 
d="M1474 999l-213 -999h-461l23 102q-135 -129 -334 -129q-156 0 -248 93q-98 98 -98 270q0 70 16 147q52 246 215 400q156 145 344 145q189 0 275 -121l20 92h461zM882 520q4 21 4 39q0 96 -86 96q-61 0 -102 -62.5t-41 -127.5q0 -92 88 -92q105 0 137 147zM578 -495
q-131 0 -131 133q0 88 61.5 159t147.5 71q62 0 97.5 -38t35.5 -99q0 -89 -62.5 -157.5t-148.5 -68.5zM1412 1360q-63 -121 -182 -195.5t-246 -74.5t-215 74.5t-100 195.5l178 174q-6 -86 48.5 -142t140.5 -56t163.5 56t108.5 142z" />
    <glyph glyph-name="egrave" unicode="&#xe8;" horiz-adv-x="1112" 
d="M1255 635l-616 -283q24 -45 65 -45q51 0 90 51l273 -186q-209 -213 -486 -213q-192 0 -314 114.5t-122 297.5q0 53 12 110q49 234 238.5 393.5t417.5 159.5q266 0 381 -198q47 -84 61 -201zM888 647q-41 62 -110 62q-66 0 -123 -47.5t-70 -110.5q-2 -12 0 -43zM993 1190
l-209 -100l-197 290l279 136z" />
    <glyph glyph-name="eacute" unicode="&#xe9;" horiz-adv-x="1112" 
d="M1255 635l-616 -283q24 -45 65 -45q51 0 90 51l273 -186q-209 -213 -486 -213q-192 0 -314 114.5t-122 297.5q0 53 12 110q49 234 238.5 393.5t417.5 159.5q266 0 381 -198q47 -84 61 -201zM888 647q-41 62 -110 62q-66 0 -123 -47.5t-70 -110.5q-2 -12 0 -43zM1130 1399
l-340 -316l-170 101l289 350z" />
    <glyph glyph-name="uni1EBB" unicode="&#x1ebb;" horiz-adv-x="1112" 
d="M1255 635l-616 -283q24 -45 65 -45q51 0 90 51l273 -186q-209 -213 -486 -213q-192 0 -314 114.5t-122 297.5q0 53 12 110q49 234 238.5 393.5t417.5 159.5q266 0 381 -198q47 -84 61 -201zM888 647q-41 62 -110 62q-66 0 -123 -47.5t-70 -110.5q-2 -12 0 -43zM1178 1385
q-18 -78 -75 -129q-7 -5 -101 -70q-55 -37 -65 -78h-217q15 65 61 113q12 12 81 67q42 34 49 65q5 22 -11.5 36.5t-45.5 14.5q-56 0 -167 -60l-27 184q147 68 283 68q121 0 184 -51q56 -45 56 -118q0 -20 -5 -42z" />
    <glyph glyph-name="uni1EBD" unicode="&#x1ebd;" horiz-adv-x="1112" 
d="M1255 635l-616 -283q24 -45 65 -45q51 0 90 51l273 -186q-209 -213 -486 -213q-192 0 -314 114.5t-122 297.5q0 53 12 110q49 234 238.5 393.5t417.5 159.5q266 0 381 -198q47 -84 61 -201zM888 647q-41 62 -110 62q-66 0 -123 -47.5t-70 -110.5q-2 -12 0 -43zM1306 1419
l-49 -235q-80 -29 -156 -29q-53 0 -161.5 23.5t-151.5 23.5q-88 0 -176 -49l51 238q76 34 164 34q49 0 141 -22.5t158 -22.5q94 0 180 39z" />
    <glyph glyph-name="uni1EB9" unicode="&#x1eb9;" horiz-adv-x="1112" 
d="M1255 635l-616 -283q24 -45 65 -45q51 0 90 51l273 -186q-209 -213 -486 -213q-192 0 -314 114.5t-122 297.5q0 53 12 110q49 234 238.5 393.5t417.5 159.5q266 0 381 -198q47 -84 61 -201zM888 647q-41 62 -110 62q-66 0 -123 -47.5t-70 -110.5q-2 -12 0 -43zM477 -495
q-131 0 -131 133q0 88 61.5 159t147.5 71q62 0 97.5 -38t35.5 -99q0 -89 -62.5 -157.5t-148.5 -68.5z" />
    <glyph glyph-name="ecircumflex" unicode="&#xea;" horiz-adv-x="1112" 
d="M1255 635l-616 -283q24 -45 65 -45q51 0 90 51l273 -186q-209 -213 -486 -213q-192 0 -314 114.5t-122 297.5q0 53 12 110q49 234 238.5 393.5t417.5 159.5q266 0 381 -198q47 -84 61 -201zM888 647q-41 62 -110 62q-66 0 -123 -47.5t-70 -110.5q-2 -12 0 -43zM1237 1288
l-107 -172l-272 141l-334 -141l-33 172l418 211z" />
    <glyph glyph-name="uni1EC1" unicode="&#x1ec1;" horiz-adv-x="1112" 
d="M1255 635l-616 -283q24 -45 65 -45q51 0 90 51l273 -186q-209 -213 -486 -213q-192 0 -314 114.5t-122 297.5q0 53 12 110q49 234 238.5 393.5t417.5 159.5q266 0 381 -198q47 -84 61 -201zM888 647q-41 62 -110 62q-66 0 -123 -47.5t-70 -110.5q-2 -12 0 -43zM852 1521
l-209 -100l-197 290l279 136zM1237 1288l-107 -172l-272 141l-334 -141l-33 172l418 211z" />
    <glyph glyph-name="uni1EBF" unicode="&#x1ebf;" horiz-adv-x="1112" 
d="M1255 635l-616 -283q24 -45 65 -45q51 0 90 51l273 -186q-209 -213 -486 -213q-192 0 -314 114.5t-122 297.5q0 53 12 110q49 234 238.5 393.5t417.5 159.5q266 0 381 -198q47 -84 61 -201zM888 647q-41 62 -110 62q-66 0 -123 -47.5t-70 -110.5q-2 -12 0 -43zM1481 1710
l-340 -316l-170 101l289 350zM1237 1288l-107 -172l-272 141l-334 -141l-33 172l418 211z" />
    <glyph glyph-name="uni1EC3" unicode="&#x1ec3;" horiz-adv-x="1112" 
d="M1255 635l-616 -283q24 -45 65 -45q51 0 90 51l273 -186q-209 -213 -486 -213q-192 0 -314 114.5t-122 297.5q0 53 12 110q49 234 238.5 393.5t417.5 159.5q266 0 381 -198q47 -84 61 -201zM888 647q-41 62 -110 62q-66 0 -123 -47.5t-70 -110.5q-2 -12 0 -43zM1489 1736
q-18 -78 -75 -129q-7 -5 -101 -70q-55 -37 -65 -78h-217q15 65 61 113q12 12 81 67q42 34 49 65q5 22 -11.5 36.5t-45.5 14.5q-56 0 -167 -60l-27 184q147 68 283 68q121 0 184 -51q56 -45 56 -118q0 -20 -5 -42zM1237 1288l-107 -172l-272 141l-334 -141l-33 172l418 211z
" />
    <glyph glyph-name="uni1EC5" unicode="&#x1ec5;" horiz-adv-x="1112" 
d="M1255 635l-616 -283q24 -45 65 -45q51 0 90 51l273 -186q-209 -213 -486 -213q-192 0 -314 114.5t-122 297.5q0 53 12 110q49 234 238.5 393.5t417.5 159.5q266 0 381 -198q47 -84 61 -201zM888 647q-41 62 -110 62q-66 0 -123 -47.5t-70 -110.5q-2 -12 0 -43zM1376 1760
l-49 -235q-80 -29 -156 -29q-53 0 -161.5 23.5t-151.5 23.5q-88 0 -176 -49l51 238q76 34 164 34q49 0 141 -22.5t158 -22.5q94 0 180 39zM1237 1288l-107 -172l-272 141l-334 -141l-33 172l418 211z" />
    <glyph glyph-name="uni1EC7" unicode="&#x1ec7;" horiz-adv-x="1112" 
d="M1255 635l-616 -283q24 -45 65 -45q51 0 90 51l273 -186q-209 -213 -486 -213q-192 0 -314 114.5t-122 297.5q0 53 12 110q49 234 238.5 393.5t417.5 159.5q266 0 381 -198q47 -84 61 -201zM888 647q-41 62 -110 62q-66 0 -123 -47.5t-70 -110.5q-2 -12 0 -43zM477 -495
q-131 0 -131 133q0 88 61.5 159t147.5 71q62 0 97.5 -38t35.5 -99q0 -89 -62.5 -157.5t-148.5 -68.5zM1237 1288l-107 -172l-272 141l-334 -141l-33 172l418 211z" />
    <glyph glyph-name="igrave" unicode="&#xec;" horiz-adv-x="630" 
d="M720 1184l-211 -101l-194 291l278 135zM790 1047l-224 -1047h-487l164 774z" />
    <glyph glyph-name="iacute" unicode="&#xed;" horiz-adv-x="630" 
d="M849 1397l-342 -316l-168 101l289 350zM784 1047l-224 -1047h-487l164 774z" />
    <glyph glyph-name="uni1EC9" unicode="&#x1ec9;" horiz-adv-x="630" 
d="M782 1047l-224 -1047h-487l164 774zM897 1345q-18 -78 -75 -129q-7 -5 -101 -70q-56 -37 -65 -78h-217q15 65 61 113q12 12 81 67q42 34 49 65q5 22 -11.5 36.5t-45.5 14.5q-57 0 -167 -60l-27 184q147 68 283 68q121 0 184 -51q55 -45 55 -118q0 -20 -4 -42z" />
    <glyph glyph-name="itilde" unicode="&#x129;" horiz-adv-x="630" 
d="M782 1047l-224 -1047h-487l164 774zM964 1379l-49 -235q-80 -29 -156 -29q-53 0 -161.5 23.5t-151.5 23.5q-88 0 -176 -49l51 238q76 34 164 34q49 0 141 -22.5t158 -22.5q94 0 180 39z" />
    <glyph glyph-name="uni1ECB" unicode="&#x1ecb;" horiz-adv-x="630" 
d="M857 1278q-22 -111 -113 -184.5t-196 -73.5q-92 0 -151.5 54t-59.5 143q0 26 6 55q23 106 114 181t200 75q88 0 147.5 -56.5t59.5 -142.5q0 -26 -7 -51zM782 1047l-224 -1047h-487l164 774zM206 -495q-131 0 -131 133q0 88 61.5 159t147.5 71q61 0 97 -38t36 -99
q0 -89 -62.5 -157.5t-148.5 -68.5z" />
    <glyph glyph-name="ograve" unicode="&#xf2;" horiz-adv-x="1222" 
d="M1273 506q-49 -236 -244.5 -394.5t-426.5 -158.5q-199 0 -326 124t-127 310q0 53 12 109q47 225 245 384.5t427 159.5q207 0 334 -129q117 -123 117 -303q0 -51 -11 -102zM821 496q4 22 4 43q0 92 -82 92q-43 0 -81 -37t-50 -98q-4 -21 -4 -41q0 -93 82 -93
q102 0 131 134zM1034 1196l-209 -100l-197 290l279 136z" />
    <glyph glyph-name="oacute" unicode="&#xf3;" horiz-adv-x="1222" 
d="M1273 506q-49 -236 -244.5 -394.5t-426.5 -158.5q-199 0 -326 124t-127 310q0 53 12 109q47 225 245 384.5t427 159.5q207 0 334 -129q117 -123 117 -303q0 -51 -11 -102zM821 496q4 22 4 43q0 92 -82 92q-43 0 -81 -37t-50 -98q-4 -21 -4 -41q0 -93 82 -93
q102 0 131 134zM1134 1413l-340 -315l-170 100l289 350z" />
    <glyph glyph-name="uni1ECF" unicode="&#x1ecf;" horiz-adv-x="1222" 
d="M1273 506q-49 -236 -244.5 -394.5t-426.5 -158.5q-199 0 -326 124t-127 310q0 53 12 109q47 225 245 384.5t427 159.5q207 0 334 -129q117 -123 117 -303q0 -51 -11 -102zM821 496q4 22 4 43q0 92 -82 92q-43 0 -81 -37t-50 -98q-4 -21 -4 -41q0 -93 82 -93
q102 0 131 134zM1178 1385q-18 -78 -75 -129q-7 -5 -101 -70q-55 -37 -65 -78h-217q15 65 61 113q12 12 81 67q42 34 49 65q5 22 -11.5 36.5t-45.5 14.5q-57 0 -167 -60l-27 184q147 68 283 68q121 0 184 -51q56 -45 56 -118q0 -20 -5 -42z" />
    <glyph glyph-name="otilde" unicode="&#xf5;" horiz-adv-x="1222" 
d="M1273 506q-49 -236 -244.5 -394.5t-426.5 -158.5q-199 0 -326 124t-127 310q0 53 12 109q47 225 245 384.5t427 159.5q207 0 334 -129q117 -123 117 -303q0 -51 -11 -102zM821 496q4 22 4 43q0 92 -82 92q-43 0 -81 -37t-50 -98q-4 -21 -4 -41q0 -93 82 -93
q102 0 131 134zM1165 1413l-49 -235q-80 -29 -156 -29q-53 0 -161.5 23.5t-151.5 23.5q-88 0 -176 -49l51 237q76 35 164 35q49 0 141 -22.5t158 -22.5q94 0 180 39z" />
    <glyph glyph-name="uni1ECD" unicode="&#x1ecd;" horiz-adv-x="1222" 
d="M1273 506q-49 -236 -244.5 -394.5t-426.5 -158.5q-199 0 -326 124t-127 310q0 53 12 109q47 225 245 384.5t427 159.5q207 0 334 -129q117 -123 117 -303q0 -51 -11 -102zM821 496q4 22 4 43q0 92 -82 92q-43 0 -81 -37t-50 -98q-4 -21 -4 -41q0 -93 82 -93
q102 0 131 134zM477 -495q-131 0 -131 133q0 88 61.5 159t147.5 71q62 0 97.5 -38t35.5 -99q0 -89 -62.5 -157.5t-148.5 -68.5z" />
    <glyph glyph-name="ocircumflex" unicode="&#xf4;" horiz-adv-x="1222" 
d="M1273 506q-49 -236 -244.5 -394.5t-426.5 -158.5q-199 0 -326 124t-127 310q0 53 12 109q47 225 245 384.5t427 159.5q207 0 334 -129q117 -123 117 -303q0 -51 -11 -102zM821 496q4 22 4 43q0 92 -82 92q-43 0 -81 -37t-50 -98q-4 -21 -4 -41q0 -93 82 -93
q102 0 131 134zM1228 1298l-106 -172l-273 142l-333 -142l-33 172l418 211z" />
    <glyph glyph-name="uni1ED3" unicode="&#x1ed3;" horiz-adv-x="1222" 
d="M1273 506q-49 -236 -244.5 -394.5t-426.5 -158.5q-199 0 -326 124t-127 310q0 53 12 109q47 225 245 384.5t427 159.5q207 0 334 -129q117 -123 117 -303q0 -51 -11 -102zM821 496q4 22 4 43q0 92 -82 92q-43 0 -81 -37t-50 -98q-4 -21 -4 -41q0 -93 82 -93
q102 0 131 134zM853 1546l-209 -100l-197 290l279 136zM1228 1298l-106 -172l-273 142l-333 -142l-33 172l418 211z" />
    <glyph glyph-name="uni1ED1" unicode="&#x1ed1;" horiz-adv-x="1222" 
d="M1273 506q-49 -236 -244.5 -394.5t-426.5 -158.5q-199 0 -326 124t-127 310q0 53 12 109q47 225 245 384.5t427 159.5q207 0 334 -129q117 -123 117 -303q0 -51 -11 -102zM821 496q4 22 4 43q0 92 -82 92q-43 0 -81 -37t-50 -98q-4 -21 -4 -41q0 -93 82 -93
q102 0 131 134zM1485 1734l-340 -315l-170 100l289 350zM1228 1298l-106 -172l-273 142l-333 -142l-33 172l418 211z" />
    <glyph glyph-name="uni1ED5" unicode="&#x1ed5;" horiz-adv-x="1222" 
d="M1273 506q-49 -236 -244.5 -394.5t-426.5 -158.5q-199 0 -326 124t-127 310q0 53 12 109q47 225 245 384.5t427 159.5q207 0 334 -129q117 -123 117 -303q0 -51 -11 -102zM821 496q4 22 4 43q0 92 -82 92q-43 0 -81 -37t-50 -98q-4 -21 -4 -41q0 -93 82 -93
q102 0 131 134zM1479 1736q-18 -78 -75 -129q-7 -5 -101 -70q-55 -37 -65 -78h-217q15 65 61 113q12 12 81 67q42 34 49 65q5 22 -11.5 36.5t-45.5 14.5q-57 0 -167 -60l-27 184q147 68 283 68q121 0 184 -51q56 -45 56 -118q0 -20 -5 -42zM1228 1298l-106 -172l-273 142
l-333 -142l-33 172l418 211z" />
    <glyph glyph-name="uni1ED7" unicode="&#x1ed7;" horiz-adv-x="1222" 
d="M1273 506q-49 -236 -244.5 -394.5t-426.5 -158.5q-199 0 -326 124t-127 310q0 53 12 109q47 225 245 384.5t427 159.5q207 0 334 -129q117 -123 117 -303q0 -51 -11 -102zM821 496q4 22 4 43q0 92 -82 92q-43 0 -81 -37t-50 -98q-4 -21 -4 -41q0 -93 82 -93
q102 0 131 134zM1376 1764l-49 -235q-80 -29 -156 -29q-53 0 -161.5 23.5t-151.5 23.5q-88 0 -176 -49l51 237q76 35 164 35q49 0 141 -22.5t158 -22.5q94 0 180 39zM1228 1298l-106 -172l-273 142l-333 -142l-33 172l418 211z" />
    <glyph glyph-name="uni1ED9" unicode="&#x1ed9;" horiz-adv-x="1222" 
d="M1273 506q-49 -236 -244.5 -394.5t-426.5 -158.5q-199 0 -326 124t-127 310q0 53 12 109q47 225 245 384.5t427 159.5q207 0 334 -129q117 -123 117 -303q0 -51 -11 -102zM821 496q4 22 4 43q0 92 -82 92q-43 0 -81 -37t-50 -98q-4 -21 -4 -41q0 -93 82 -93
q102 0 131 134zM477 -495q-131 0 -131 133q0 88 61.5 159t147.5 71q62 0 97.5 -38t35.5 -99q0 -89 -62.5 -157.5t-148.5 -68.5zM1228 1298l-106 -172l-273 142l-333 -142l-33 172l418 211z" />
    <glyph glyph-name="glyph216" unicode="&#xf9;" horiz-adv-x="1255" 
d="M1396 999l-135 -628q-41 -193 -225 -303q-172 -103 -420 -103q-223 0 -350 85t-127 237q0 41 10 84l135 628h488l-113 -528q-6 -27 -6 -45q0 -53 57 -53q68 0 88 98l113 528h485zM1104 1180l-209 -101l-197 291l279 135z" />
    <glyph glyph-name="glyph217" unicode="&#xfa;" horiz-adv-x="1255" 
d="M1396 999l-135 -628q-41 -193 -225 -303q-172 -103 -420 -103q-223 0 -350 85t-127 237q0 41 10 84l135 628h488l-113 -528q-6 -27 -6 -45q0 -53 57 -53q68 0 88 98l113 528h485zM1134 1399l-340 -316l-170 101l289 350z" />
    <glyph glyph-name="uni1EE7" unicode="&#x1ee7;" horiz-adv-x="1255" 
d="M1396 999l-135 -628q-41 -193 -225 -303q-172 -103 -420 -103q-223 0 -350 85t-127 237q0 41 10 84l135 628h488l-113 -528q-6 -27 -6 -45q0 -53 57 -53q68 0 88 98l113 528h485zM1188 1385q-17 -78 -75 -129q-7 -5 -101 -70q-55 -37 -65 -78h-217q15 65 61 113
q12 12 81 67q43 34 50 65q4 22 -12.5 36.5t-45.5 14.5q-56 0 -167 -60l-27 184q147 68 283 68q121 0 185 -51q55 -45 55 -118q0 -20 -5 -42z" />
    <glyph glyph-name="utilde" unicode="&#x169;" horiz-adv-x="1255" 
d="M1396 999l-135 -628q-41 -193 -225 -303q-172 -103 -420 -103q-223 0 -350 85t-127 237q0 41 10 84l135 628h488l-113 -528q-6 -27 -6 -45q0 -53 57 -53q68 0 88 98l113 528h485zM1246 1413l-49 -235q-80 -29 -156 -29q-53 0 -161.5 23.5t-151.5 23.5q-88 0 -176 -49
l51 237q76 35 164 35q49 0 141 -22.5t158 -22.5q94 0 180 39z" />
    <glyph glyph-name="uni1EE5" unicode="&#x1ee5;" horiz-adv-x="1255" 
d="M1396 999l-135 -628q-41 -193 -225 -303q-172 -103 -420 -103q-223 0 -350 85t-127 237q0 41 10 84l135 628h488l-113 -528q-6 -27 -6 -45q0 -53 57 -53q68 0 88 98l113 528h485zM517 -495q-131 0 -131 133q0 88 61.5 159t147.5 71q62 0 97.5 -38t35.5 -99
q0 -89 -62 -157.5t-149 -68.5z" />
    <glyph glyph-name="uhorn" unicode="&#x1b0;" horiz-adv-x="1255" 
d="M1362 837l-100 -466q-41 -193 -226 -303q-172 -103 -420 -103q-223 0 -350 85t-127 237q0 41 11 84l135 628h487l-113 -528q-6 -27 -6 -45q0 -53 58 -53q67 0 88 98l112 528h435q20 16 40 33q-89 50 -73 143q3 17 10 37q29 71 95.5 113.5t144.5 29.5q61 -10 95 -61.5
t23 -116.5q-17 -100 -146 -213q-65 -57 -173 -127z" />
    <glyph glyph-name="uni1EEB" unicode="&#x1eeb;" horiz-adv-x="1255" 
d="M1104 1180l-209 -101l-197 291l279 135zM1362 837l-100 -466q-41 -193 -226 -303q-172 -103 -420 -103q-223 0 -350 85t-127 237q0 41 11 84l135 628h487l-113 -528q-6 -27 -6 -45q0 -53 58 -53q67 0 88 98l112 528h435q20 16 40 33q-89 50 -73 143q3 17 10 37
q29 71 95.5 113.5t144.5 29.5q61 -10 95 -61.5t23 -116.5q-17 -100 -146 -213q-65 -57 -173 -127z" />
    <glyph glyph-name="uni1EE9" unicode="&#x1ee9;" horiz-adv-x="1255" 
d="M1135 1399l-340 -316l-170 101l288 350zM1362 837l-100 -466q-41 -193 -226 -303q-172 -103 -420 -103q-223 0 -350 85t-127 237q0 41 11 84l135 628h487l-113 -528q-6 -27 -6 -45q0 -53 58 -53q67 0 88 98l112 528h435q20 16 40 33q-89 50 -73 143q3 17 10 37
q29 71 95.5 113.5t144.5 29.5q61 -10 95 -61.5t23 -116.5q-17 -100 -146 -213q-65 -57 -173 -127z" />
    <glyph glyph-name="uni1EED" unicode="&#x1eed;" horiz-adv-x="1255" 
d="M1188 1385q-17 -78 -75 -129q-7 -5 -101 -70q-55 -37 -64 -78h-218q16 65 62 113q11 12 81 67q42 34 49 65q5 22 -11.5 36.5t-46.5 14.5q-56 0 -166 -60l-27 184q146 68 283 68q120 0 184 -51q55 -45 55 -118q0 -20 -5 -42zM1362 837l-100 -466q-41 -193 -226 -303
q-172 -103 -420 -103q-223 0 -350 85t-127 237q0 41 11 84l135 628h487l-113 -528q-6 -27 -6 -45q0 -53 58 -53q67 0 88 98l112 528h435q20 16 40 33q-89 50 -73 143q3 17 10 37q29 71 95.5 113.5t144.5 29.5q61 -10 95 -61.5t23 -116.5q-17 -100 -146 -213
q-65 -57 -173 -127z" />
    <glyph glyph-name="uni1EEF" unicode="&#x1eef;" horiz-adv-x="1255" 
d="M1246 1413l-49 -235q-80 -29 -155 -29q-54 0 -162.5 23.5t-151.5 23.5q-88 0 -176 -49l51 237q76 35 164 35q49 0 141.5 -22.5t157.5 -22.5q94 0 180 39zM1362 837l-100 -466q-41 -193 -226 -303q-172 -103 -420 -103q-223 0 -350 85t-127 237q0 41 11 84l135 628h487
l-113 -528q-6 -27 -6 -45q0 -53 58 -53q67 0 88 98l112 528h435q20 16 40 33q-89 50 -73 143q3 17 10 37q29 71 95.5 113.5t144.5 29.5q61 -10 95 -61.5t23 -116.5q-17 -100 -146 -213q-65 -57 -173 -127z" />
    <glyph glyph-name="uni1EF1" unicode="&#x1ef1;" horiz-adv-x="1255" 
d="M518 -495q-131 0 -131 133q0 88 61.5 159t147.5 71q61 0 97 -38t36 -99q0 -89 -62.5 -157.5t-148.5 -68.5zM1362 837l-100 -466q-41 -193 -226 -303q-172 -103 -420 -103q-223 0 -350 85t-127 237q0 41 11 84l135 628h487l-113 -528q-6 -27 -6 -45q0 -53 58 -53
q67 0 88 98l112 528h435q20 16 40 33q-89 50 -73 143q3 17 10 37q29 71 95.5 113.5t144.5 29.5q61 -10 95 -61.5t23 -116.5q-17 -100 -146 -213q-65 -57 -173 -127z" />
    <glyph glyph-name="ohorn" unicode="&#x1a1;" horiz-adv-x="1222" 
d="M820 496q4 22 4 43q0 92 -82 92q-43 0 -80.5 -37t-50.5 -98q-4 -21 -4 -41q0 -93 82 -93q103 0 131 134zM1207 861q76 -108 76 -253q0 -51 -10 -102q-49 -236 -244.5 -394.5t-427.5 -158.5q-199 0 -325.5 124t-126.5 310q0 53 12 109q47 225 244.5 384.5t427.5 159.5
q159 0 271 -77q46 31 90 69q-89 50 -73 143q3 17 10 37q29 71 95.5 113.5t144.5 29.5q61 -10 95 -61.5t23 -116.5q-17 -100 -146 -213q-54 -47 -136 -103z" />
    <glyph glyph-name="uni1EDD" unicode="&#x1edd;" horiz-adv-x="1222" 
d="M820 496q4 22 4 43q0 92 -82 92q-43 0 -80.5 -37t-50.5 -98q-4 -21 -4 -41q0 -93 82 -93q103 0 131 134zM1033 1196l-209 -100l-196 290l278 136zM1207 861q76 -108 76 -253q0 -51 -10 -102q-49 -236 -244.5 -394.5t-427.5 -158.5q-199 0 -325.5 124t-126.5 310
q0 53 12 109q47 225 244.5 384.5t427.5 159.5q159 0 271 -77q46 31 90 69q-89 50 -73 143q3 17 10 37q29 71 95.5 113.5t144.5 29.5q61 -10 95 -61.5t23 -116.5q-17 -100 -146 -213q-54 -47 -136 -103z" />
    <glyph glyph-name="uni1EDB" unicode="&#x1edb;" horiz-adv-x="1222" 
d="M820 496q4 22 4 43q0 92 -82 92q-43 0 -80.5 -37t-50.5 -98q-4 -21 -4 -41q0 -93 82 -93q103 0 131 134zM1134 1413l-340 -315l-170 100l288 350zM1207 861q76 -108 76 -253q0 -51 -10 -102q-49 -236 -244.5 -394.5t-427.5 -158.5q-199 0 -325.5 124t-126.5 310
q0 53 12 109q47 225 244.5 384.5t427.5 159.5q159 0 271 -77q46 31 90 69q-89 50 -73 143q3 17 10 37q29 71 95.5 113.5t144.5 29.5q61 -10 95 -61.5t23 -116.5q-17 -100 -146 -213q-54 -47 -136 -103z" />
    <glyph glyph-name="uni1EDF" unicode="&#x1edf;" horiz-adv-x="1222" 
d="M820 496q4 22 4 43q0 92 -82 92q-43 0 -80.5 -37t-50.5 -98q-4 -21 -4 -41q0 -93 82 -93q103 0 131 134zM1177 1385q-17 -78 -75 -129q-7 -5 -101 -70q-55 -37 -64 -78h-218q16 65 62 113q11 12 81 67q42 34 49 65q5 22 -11.5 36.5t-46.5 14.5q-56 0 -166 -60l-27 184
q146 68 283 68q120 0 184 -51q55 -45 55 -118q0 -20 -5 -42zM1207 861q76 -108 76 -253q0 -51 -10 -102q-49 -236 -244.5 -394.5t-427.5 -158.5q-199 0 -325.5 124t-126.5 310q0 53 12 109q47 225 244.5 384.5t427.5 159.5q159 0 271 -77q46 31 90 69q-89 50 -73 143
q3 17 10 37q29 71 95.5 113.5t144.5 29.5q61 -10 95 -61.5t23 -116.5q-17 -100 -146 -213q-54 -47 -136 -103z" />
    <glyph glyph-name="uni1EE1" unicode="&#x1ee1;" horiz-adv-x="1222" 
d="M820 496q4 22 4 43q0 92 -82 92q-43 0 -80.5 -37t-50.5 -98q-4 -21 -4 -41q0 -93 82 -93q103 0 131 134zM1164 1413l-49 -235q-80 -29 -155 -29q-54 0 -162.5 23.5t-151.5 23.5q-88 0 -176 -49l51 237q76 35 164 35q49 0 141.5 -22.5t157.5 -22.5q94 0 180 39zM1207 861
q76 -108 76 -253q0 -51 -10 -102q-49 -236 -244.5 -394.5t-427.5 -158.5q-199 0 -325.5 124t-126.5 310q0 53 12 109q47 225 244.5 384.5t427.5 159.5q159 0 271 -77q46 31 90 69q-89 50 -73 143q3 17 10 37q29 71 95.5 113.5t144.5 29.5q61 -10 95 -61.5t23 -116.5
q-17 -100 -146 -213q-54 -47 -136 -103z" />
    <glyph glyph-name="uni1EE3" unicode="&#x1ee3;" horiz-adv-x="1222" 
d="M820 496q4 22 4 43q0 92 -82 92q-43 0 -80.5 -37t-50.5 -98q-4 -21 -4 -41q0 -93 82 -93q103 0 131 134zM477 -495q-131 0 -131 133q0 88 61.5 159t147.5 71q61 0 97 -38t36 -99q0 -89 -62.5 -157.5t-148.5 -68.5zM1207 861q76 -108 76 -253q0 -51 -10 -102
q-49 -236 -244.5 -394.5t-427.5 -158.5q-199 0 -325.5 124t-126.5 310q0 53 12 109q47 225 244.5 384.5t427.5 159.5q159 0 271 -77q46 31 90 69q-89 50 -73 143q3 17 10 37q29 71 95.5 113.5t144.5 29.5q61 -10 95 -61.5t23 -116.5q-17 -100 -146 -213q-54 -47 -136 -103z
" />
    <glyph glyph-name="ygrave" unicode="&#x1ef3;" horiz-adv-x="1267" 
d="M1523 999l-878 -1355h-545l303 415l-219 940h532l33 -467l236 467h538zM1104 1180l-209 -101l-197 291l279 135z" />
    <glyph glyph-name="glyph234" unicode="&#xfd;" horiz-adv-x="1267" 
d="M1523 999l-878 -1355h-545l303 415l-219 940h532l33 -467l236 467h538zM1134 1399l-340 -316l-170 101l289 350z" />
    <glyph glyph-name="uni1EF7" unicode="&#x1ef7;" horiz-adv-x="1267" 
d="M1523 999l-878 -1355h-545l303 415l-219 940h532l33 -467l236 467h538zM1188 1385q-18 -78 -75 -129q-7 -5 -101 -70q-55 -37 -65 -78h-217q15 65 61 113q12 12 81 67q42 34 50 65q4 22 -12.5 36.5t-45.5 14.5q-56 0 -167 -60l-27 184q147 68 283 68q121 0 185 -51
q55 -45 55 -118q0 -20 -5 -42z" />
    <glyph glyph-name="uni1EF9" unicode="&#x1ef9;" horiz-adv-x="1267" 
d="M1523 999l-878 -1355h-545l303 415l-219 940h532l33 -467l236 467h538zM1246 1413l-49 -235q-80 -29 -156 -29q-53 0 -161.5 23.5t-151.5 23.5q-88 0 -176 -49l51 237q76 35 164 35q49 0 141 -22.5t158 -22.5q94 0 180 39z" />
    <glyph glyph-name="uni1EF5" unicode="&#x1ef5;" horiz-adv-x="1267" 
d="M1523 999l-878 -1355h-545l303 415l-219 940h532l33 -467l236 467h538zM878 -495q-131 0 -131 133q0 88 61.5 159t147.5 71q62 0 97.5 -38t35.5 -99q0 -89 -62.5 -157.5t-148.5 -68.5z" />
    <glyph glyph-name="divide" unicode="&#xf7;" horiz-adv-x="1706" 
 />
    <glyph glyph-name="ugrave" horiz-adv-x="582" 
 />
    <glyph glyph-name="uacute" horiz-adv-x="580" 
 />
    <glyph glyph-name="yacute" horiz-adv-x="629" 
 />
    <glyph glyph-name="Ccaron" unicode="&#x10c;" horiz-adv-x="1274" 
 />
    <glyph glyph-name="ccaron" unicode="&#x10d;" horiz-adv-x="922" 
 />
    <glyph glyph-name="Dslash" unicode="&#x110;" horiz-adv-x="1490" 
d="M1587 721q-70 -330 -307.5 -525.5t-550.5 -195.5h-658l117 553h-133l70 326h133l116 551h668q256 0 409.5 -148.5t153.5 -392.5q0 -82 -18 -168zM1032 739q8 35 8 66q0 92 -57.5 143t-143.5 51h-26l-27 -120h148l-70 -326h-147l-21 -98h37q240 0 299 284z" />
    <glyph glyph-name="dcroat" unicode="&#x111;" horiz-adv-x="1335" 
d="M887 516q4 23 4 43q0 96 -84 96q-113 0 -143 -145q-5 -23 -5 -41q0 -94 84 -94q113 0 144 141zM1021 1155l11 53l547 273l-69 -326h115l-25 -110h-114l-222 -1045h-461l22 102q-49 -55 -149.5 -94t-202.5 -39q-158 0 -246 109q-82 102 -82 272q0 78 19 162
q47 225 201.5 369.5t343.5 144.5q145 0 260 -119l29 138h-262l25 110h260z" />
    <glyph glyph-name="quoteleft" unicode="&#x2018;" horiz-adv-x="587" 
d="M833 1360q-123 -92 -225 -213q135 -49 135 -180q0 -25 -6 -54q-23 -104 -105 -177.5t-192 -73.5q-86 0 -144.5 63t-58.5 156q0 141 152 325q118 144 270 254z" />
    <glyph glyph-name="quoteright" unicode="&#x2019;" horiz-adv-x="587" 
d="M378 662l-176 100q123 92 225 213q-135 49 -135 180q0 25 6 53q23 105 106 178.5t193 73.5q86 0 144.5 -63.5t58.5 -155.5q0 -141 -152 -326q-118 -143 -270 -253z" />
    <glyph glyph-name="quotedblleft" unicode="&#x201c;" horiz-adv-x="1130" 
d="M1376 1360q-123 -92 -226 -213q136 -49 136 -180q0 -25 -7 -54q-22 -104 -104 -177.5t-193 -73.5q-86 0 -144 63t-58 156q0 141 151 325q119 144 271 254zM833 1360q-123 -92 -225 -213q135 -49 135 -180q0 -25 -6 -54q-23 -104 -105 -177.5t-192 -73.5q-86 0 -144.5 63
t-58.5 156q0 141 152 325q118 144 270 254z" />
    <glyph glyph-name="quotedblright" unicode="&#x201d;" horiz-adv-x="1130" 
d="M923 662l-176 100q123 92 225 213q-135 49 -135 180q0 25 6 53q23 105 105.5 178.5t193.5 73.5q86 0 144.5 -63.5t58.5 -155.5q0 -141 -152 -326q-119 -143 -270 -253zM380 662l-176 100q123 92 225 213q-135 49 -135 180q0 25 6 53q23 105 106 178.5t193 73.5
q86 0 144.5 -63.5t58.5 -155.5q0 -141 -152 -326q-118 -143 -270 -253z" />
    <glyph glyph-name="ellipsis" unicode="&#x2026;" horiz-adv-x="1718" 
d="M1425 -29q-78 0 -126 48.5t-48 121.5q0 103 83 181.5t183 78.5q76 0 124 -49t48 -121q0 -102 -81 -181t-183 -79zM851 -29q-75 0 -123.5 48.5t-48.5 121.5q0 101 81 180.5t184 79.5q77 0 124.5 -48t47.5 -122q0 -102 -81 -181t-184 -79zM280 -29q-78 0 -126 48.5
t-48 121.5q0 103 83 181.5t183 78.5q76 0 124 -49t48 -121q0 -102 -81 -181t-183 -79z" />
    </font>
</defs>
</svg>
